.
Авторизация | Регистрация

bitok.xyz

» » Как отмыть миллион / La chute de lempire americain (2018) BDRip [H.265 / 720p] [10-bit] [PR] торрент скачать бесплатно


    Как отмыть миллион / La chute de lempire americain (2018) BDRip [H.265 / 720p] [10-bit] [PR] торрент скачать бесплатно

    Дата: 1-11-2019, 05:00 | .torrent скачали: 0

    Как отмыть миллион / La chute de lempire americain (2018) BDRip [H.265 / 720p] [10-bit] [PR]Производство: Канада/Cinemaginaire Inc.
    Жанр: Комедия, Криминал
    Режиссер: Дени Аркан

    Актеры
    Александр Ландри, Мари-Пьер Морен, Реми Жирар, Максим Рой, Эрик Брюно, Венсан Леклер, Жюльетт Госслен, Пьер Курци, Ян Инглэнд, Роз-Мари Перро, Клод Лего

    Описание

    Скромняга Пьер-Поль, обладатель ученой степени, вынужден подрабатывать курьером. В один прекрасный день, доставляя очередную посылку, он первым оказывается на месте преступления и становится обладателем миллионного куша. Искушение решить все житейские проблемы велико. И пока он размышляет вернуть или присвоить огромную сумму наличных, его начинают преследовать бандиты, а полиция не спускает с него глаз. Спасаясь и от тех, и от других, интеллектуал Пьер-Поль встречает роковую красотку…

    Возраст: 16+ (зрителям, достигшим 16 лет)
    Рейтинг MPAA: R (лицам до 17 лет обязательно присутствие взрослого)
    Дата мировой премьеры: 19 июня 2018
    Дата российской премьеры: 1 августа 2019, Русский Репортаж
    Продолжительность: 02: 07: 41
    Качество видео: BDRip (720p)
    Перевод: Профессиональный многоголосый (iTunes)
    Субтитры: Отсутствуют
    Видео: HEVC/H.265, 1280x536, ~3768 Kbps
    Аудио 1: AC3, 6 ch, 384 Kbps - Русский
    Аудио 2: AC3, 6 ch, 448 Kbps - Французский
    Общее
    Уникальный идентификатор : 326435512234179687203397893685914107674 (0xF595315AD6621D0191D4675ACDF3FF1A)
    Полное имя : La.Chute.De.L.Empire.Americain.2018.BDRip.720p.10bit.HEVC.mkv
    Формат : Matroska
    Версия формата : Version 4/Version 2
    Размер файла : 4, 19 Гбайт
    Продолжительность : 2 ч. 7 м.
    Общий поток : 4693 Кбит/сек
    Название фильма : La chute de l\'empire américain 2018
    Программа кодирования : XviD4PSP 8.0.90
    Библиотека кодирования : Lavf58.20.100
    ErrorDetectionType : Per level 1
    ENCODING_INFO : MATROSKA, WEBM MKV
    Видео
    Идентификатор : 1
    Формат : HEVC
    Формат/Информация : High Efficiency Video Coding
    Профиль формата : Main10@L4.1@High
    Идентификатор кодека : V_MPEGH/ISO/HEVC
    Продолжительность : 2 ч. 7 м.
    Битрейт : 3768 Кбит/сек
    Ширина : 1280 пикселей
    Высота : 536 пикселей
    Соотношение сторон : 2, 40: 1
    Режим частоты кадров : Постоянный
    Частота кадров : 23, 976 (24000/1001) кадра/сек
    Цветовое пространство : YUV
    Субдискретизация насыщенности : 4: 2: 0
    Битовая глубина : 10 бит
    Бит/(Пиксели*Кадры) : 0.229
    Размер потока : 3, 36 Гбайт (80%)
    Язык : French
    Default : Да
    Forced : Нет
    Цветовой диапазон : Limited
    Основные цвета : BT.709
    Характеристики трансфера : BT.709
    Коэффициенты матрицы : BT.709
    ENCODING_INFO : H264 HEVC NVENC VBR 4000kbps HQ
    Аудио #1
    Идентификатор : 2
    Формат : AC-3
    Формат/Информация : Audio Coding 3
    Параметр Endianness формата : Big
    Идентификатор кодека : A_AC3
    Продолжительность : 2 ч. 7 м.
    Вид битрейта : Постоянный
    Битрейт : 384 Кбит/сек
    Каналы : 6 каналов
    Расположение каналов : Front: L C R, Side: L R, LFE
    Частота : 48, 0 КГц
    Частота кадров : 31, 250 кадров/сек (1536 SPF)
    Битовая глубина : 16 бит
    Метод сжатия : С потерями
    Размер потока : 351 Мбайт (8%)
    Заголовок : iTunes
    Язык : Russian
    ServiceKind/String : Complete Main
    Default : Да
    Forced : Нет
    ENCODING_INFO : AC3 COPY Безопасное
    Аудио #2
    Идентификатор : 3
    Формат : AC-3
    Формат/Информация : Audio Coding 3
    Параметр Endianness формата : Big
    Идентификатор кодека : A_AC3
    Продолжительность : 2 ч. 7 м.
    Вид битрейта : Постоянный
    Битрейт : 448 Кбит/сек
    Каналы : 6 каналов
    Расположение каналов : Front: L C R, Side: L R, LFE
    Частота : 48, 0 КГц
    Частота кадров : 31, 250 кадров/сек (1536 SPF)
    Битовая глубина : 16 бит
    Метод сжатия : С потерями
    Размер потока : 409 Мбайт (10%)
    Заголовок : Original
    Язык : French
    ServiceKind/String : Complete Main
    Default : Нет
    Forced : Нет
    ENCODING_INFO : DTS-HD MA AC3 CBR 448kbps
    Меню
    00: 00: 00.000 : : 00: 00: 00.000
    00: 05: 55.355 : : 00: 05: 55.355
    00: 13: 12.458 : : 00: 13: 12.458
    00: 19: 00.056 : : 00: 19: 00.056
    00: 23: 17.479 : : 00: 23: 17.479
    00: 28: 31.418 : : 00: 28: 31.418
    00: 37: 02.220 : : 00: 37: 02.220
    00: 47: 08.367 : : 00: 47: 08.367
    00: 52: 44.078 : : 00: 52: 44.078
    00: 59: 20.390 : : 00: 59: 20.390
    01: 05: 57.954 : : 01: 05: 57.954
    01: 13: 09.885 : : 01: 13: 09.885
    01: 21: 15.370 : : 01: 21: 15.370
    01: 29: 58.059 : : 01: 29: 58.059
    01: 34: 21.906 : : 01: 34: 21.906
    01: 39: 28.379 : : 01: 39: 28.379
    01: 44: 17.334 : : 01: 44: 17.334
    01: 50: 55.440 : : 01: 50: 55.440
    01: 56: 52.505 : : 01: 56: 52.505
    02: 01: 48.593 : : 02: 01: 48.593

    Скриншоты для ознакомления



    Все одноименные релизы в Клубе
    Время раздачи: 19 - 23 (до появления первых 3-5 скачавших)

    Онлайн видео Как отмыть миллион



    Как отмыть миллион/La chute de lempire americain (2018) BDRip [H.265/720p] [10-bit] [PR]
    Рейтинг →
     (голосов: 1, оценка 5/5, голосовать можно 1 раз )

    Другие торренты по теме:

  • Как отмыть миллион / La chute de lempire americain (2018) CAMRip [MVO] [AD]
  • Как отмыть миллион / La chute de lempire americain (2018) WEB-DLRip [H.264]
  • Как отмыть миллион / La chute de lempire americain (2018) WEB-DL [H.264 / 1080p-LQ]
  • Как отмыть миллион / La chute de lempire americain (2018) WEB-DLRip
  • Как отмыть миллион / La chute de lempire américain (2018) WEB-DL [H.264 / 720p-LQ]
  • Как отмыть миллион / La chute de lempire americain (2018) BDRip
  • Как отмыть миллион / La chute de lempire americain (2018) BDRip [H.264 / 1080p]
  • Как отмыть миллион / La chute de lempire americain (2018) BDRemux [H.264 / 1080p]


    • Комментарии (0):

      Информация

      Информация

        Посетители, находящиеся в группе Гости, не могут оставлять комментарии в данной новости.

        ↓ Меню




        ↓ Опрос

        Вы добавили сайт в закладки?
        Да
        Нет


        Популярное