.
Авторизация | Регистрация

bitok.xyz

» » Измени или умри / An Affair to Die For (2018) WEB-DLRip торрент скачать бесплатно


    Измени или умри / An Affair to Die For (2018) WEB-DLRip торрент скачать бесплатно

    Дата: 1-11-2019, 05:00 | .torrent скачали: 0

    Измени или умри / An Affair to Die For (2018) WEB-DLRipПроизводство: Испания/Illogic Srl, Kobalt Entertainment, Martha Production
    Жанр: Триллер
    Режиссер: Виктор Гарсия

    Актеры
    Клер Форлани, Джейк Эйбел, Титус Уэлливер, Нэйтан Купер, Мелина Мэтьюз ...

    Описание

    Тайное свидание в дорогой гостинице. Жена изменяет своему мужу. Муж изменяет своей жене. Казалось бы, ничего необычного. Но что, если всё пойдёт не так?

    Дата мировой премьеры: 1 февраля 2019
    Продолжительность: 01: 22: 44
    Качество видео: WEB-DLRip
    Перевод: Многоголосый закадровый, профессиональный (iTunes)
    Субтитры: Отсутствуют
    Видео: XviD, 720x304, ~2019 Kbps
    Аудио: AC-3, 6 ch, 384 Kbps
    Общее
    Полное имя : D: NNMИзмени или умриAn.Affair.to.Die.For.2019.WEB-DLRip.avi
    Формат : AVI
    Формат/Информация : Audio Video Interleave
    Размер файла : 1, 39 Гбайт
    Продолжительность : 1 ч. 22 м.
    Общий поток : 2413 Кбит/сек
    Программа кодирования : VirtualDubMod 1.5.10.3 |www.virtualdub-fr.org|| (build 2550/release)
    Библиотека кодирования : VirtualDubMod build 2550/release
    Видео
    Идентификатор : 0
    Формат : MPEG-4 Visual
    Профиль формата : Advanced Simple@L5
    Настройки формата : BVOP1/Custom Matrix
    Параметр BVOP формата : 1
    Параметр QPel формата : Нет
    Параметр GMC формата : Без точки перехода
    Параметр матрицы формата : Выборочная
    Идентификатор кодека : XVID
    Идентификатор кодека/Подсказка : XviD
    Продолжительность : 1 ч. 22 м.
    Битрейт : 2019 Кбит/сек
    Ширина : 720 пикселей
    Высота : 304 пикселя
    Соотношение сторон : 2, 35: 1
    Частота кадров : 23, 976 (24000/1001) кадра/сек
    Цветовое пространство : YUV
    Субдискретизация насыщенности : 4: 2: 0
    Битовая глубина : 8 бит
    Тип развёртки : Прогрессивная
    Метод сжатия : С потерями
    Бит/(Пиксели*Кадры) : 0.385
    Размер потока : 1, 17 Гбайт (84%)
    Библиотека кодирования : XviD 1.2.1 (UTC 2008-12-04)
    Аудио
    Идентификатор : 1
    Формат : AC-3
    Формат/Информация : Audio Coding 3
    Коммерческое название : Dolby Digital
    Идентификатор кодека : 2000
    Продолжительность : 1 ч. 22 м.
    Вид битрейта : Постоянный
    Битрейт : 384 Кбит/сек
    Каналы : 6 каналов
    ChannelLayout : L R C LFE Ls Rs
    Частота : 48, 0 КГц
    Частота кадров : 31, 250 кадров/сек (1536 SPF)
    Битовая глубина : 16 бит
    Метод сжатия : С потерями
    Размер потока : 227 Мбайт (16%)
    Выравнивание : Разделение по промежуткам
    Продолжительность промежутка : 42 мс. (1, 00 видеокадр)
    Время предзагрузки промежутка : 500 мс.
    ServiceKind/String : Complete Main

    Скриншоты для ознакомления



    Все одноименные релизы в Клубе Время раздачи: 24/7 (до появления первых 3-5 скачавших)

    Онлайн видео Измени или умри



    Измени или умри/An Affair to Die For (2018) WEB-DLRip
    Рейтинг →
     (голосов: 1, оценка 4/5, голосовать можно 1 раз )

    Другие торренты по теме:

  • Измени или умри / An Affair to Die For (2019) WEBRip [H.264 / 1080p]
  • Измени или умри / An Affair to Die For (2018) WEB-DL [H.264 / 1080p-LQ]
  • Измени или умри / An Affair to Die For (2018) WEB-DLRip [H.265] [10-bit]


    • Комментарии (0):

      Информация

      Информация

        Посетители, находящиеся в группе Гости, не могут оставлять комментарии в данной новости.

        ↓ Меню




        ↓ Опрос

        Вы добавили сайт в закладки?
        Да
        Нет


        Популярное