.
Авторизация | Регистрация

bitok.xyz

» » Измени или умри / An Affair to Die For (2018) WEB-DL [H.264 / 1080p-LQ] торрент скачать бесплатно


    Измени или умри / An Affair to Die For (2018) WEB-DL [H.264 / 1080p-LQ] торрент скачать бесплатно

    Дата: 1-11-2019, 05:00 | .torrent скачали: 0

    Измени или умри / An Affair to Die For (2018) WEB-DL [H.264 / 1080p-LQ]Производство: Испания/Illogic Srl, Kobalt Entertainment, Martha Production
    Жанр: Триллер
    Режиссер: Виктор Гарсия

    Актеры
    Клер Форлани, Джейк Эйбел, Титус Уэлливер, Нэйтан Купер, Мелина Мэтьюз ...

    Описание

    Тайное свидание в дорогой гостинице. Жена изменяет своему мужу. Муж изменяет своей жене. Казалось бы, ничего необычного. Но что, если всё пойдёт не так?

    Дата мировой премьеры: 1 февраля 2019
    Релиз от: NNMClub
    Продолжительность: 01: 22: 44
    Качество видео: WEB-DL
    Перевод: Многоголосый закадровый, профессиональный (iTunes), (HDrezka Studio)
    Субтитры: Английские (Full)
    Видео: AVC/H.264, 1914x796, ~4584 Kbps
    Аудио #1: AC3, 6 ch, 384 Kbps - Русский многоголосый (iTunes)
    Аудио #2: AC3, 2 ch, 192 Kbps - Русский многоголосый (HDrezka Studio)
    Аудио #3: AC3, 6 ch, 384 Kbps - Английский (Оригинал)
    Общее
    Уникальный идентификатор : 207817490442835814624964278019490726574 (0x9C58315A1A99E75880F20E4707F642AE)
    Полное имя : D: NNMИзмени или умриAn.Affair.to.Die.For.2019.WEB-DL.1080p-LQ.mkv
    Формат : Matroska
    Версия формата : Version 4
    Размер файла : 3, 21 Гбайт
    Продолжительность : 1 ч. 22 м.
    Общий поток : 5554 Кбит/сек
    Название фильма : For NNMClub
    Дата кодирования : UTC 2019-10-31 11: 17: 20
    Программа кодирования : mkvmerge v6.9.1 (\'Blue Panther\') 32bit built on Apr 18 2014 18: 15: 44
    Библиотека кодирования : libebml v1.3.0 + libmatroska v1.4.1
    Видео
    Идентификатор : 1
    Формат : AVC
    Формат/Информация : Advanced Video Codec
    Профиль формата : High@L4
    Настройки формата : CABAC/5 Ref Frames
    Параметр CABAC формата : Да
    Параметр RefFrames формата : 5 кадров
    Идентификатор кодека : V_MPEG4/ISO/AVC
    Продолжительность : 1 ч. 22 м.
    Битрейт : 4584 Кбит/сек
    Ширина : 1914 пикселей
    Высота : 796 пикселей
    Соотношение сторон : 2, 40: 1
    Режим частоты кадров : Постоянный
    Частота кадров : 23, 976 (24000/1001) кадра/сек
    Цветовое пространство : YUV
    Субдискретизация насыщенности : 4: 2: 0
    Битовая глубина : 8 бит
    Тип развёртки : Прогрессивная
    Бит/(Пиксели*Кадры) : 0.123
    Размер потока : 2, 59 Гбайт (81%)
    Заголовок : An.Affair.to.Die.For.2019.FGT
    Язык : English
    Default : Да
    Forced : Нет
    Цветовой диапазон : Limited
    Основные цвета : BT.709
    Характеристики трансфера : BT.709
    Коэффициенты матрицы : BT.709
    Аудио #1
    Идентификатор : 2
    Формат : AC-3
    Формат/Информация : Audio Coding 3
    Коммерческое название : Dolby Digital
    Идентификатор кодека : A_AC3
    Продолжительность : 1 ч. 22 м.
    Вид битрейта : Постоянный
    Битрейт : 384 Кбит/сек
    Каналы : 6 каналов
    ChannelLayout : L R C LFE Ls Rs
    Частота : 48, 0 КГц
    Частота кадров : 31, 250 кадров/сек (1536 SPF)
    Битовая глубина : 16 бит
    Метод сжатия : С потерями
    Задержка видео : -42 мс.
    Размер потока : 227 Мбайт (7%)
    Заголовок : Russian MVO iTunes
    Язык : Russian
    ServiceKind/String : Complete Main
    Default : Да
    Forced : Нет
    Аудио #2
    Идентификатор : 3
    Формат : AC-3
    Формат/Информация : Audio Coding 3
    Коммерческое название : Dolby Digital
    Идентификатор кодека : A_AC3
    Продолжительность : 1 ч. 22 м.
    Вид битрейта : Постоянный
    Битрейт : 192 Кбит/сек
    Каналы : 2 канала
    ChannelLayout : L R
    Частота : 48, 0 КГц
    Частота кадров : 31, 250 кадров/сек (1536 SPF)
    Битовая глубина : 16 бит
    Метод сжатия : С потерями
    Задержка видео : -42 мс.
    Размер потока : 114 Мбайт (3%)
    Заголовок : MVO (HDRezka Studio)
    Язык : Russian
    ServiceKind/String : Complete Main
    Default : Нет
    Forced : Нет
    Аудио #3
    Идентификатор : 4
    Формат : AC-3
    Формат/Информация : Audio Coding 3
    Коммерческое название : Dolby Digital
    Идентификатор кодека : A_AC3
    Продолжительность : 1 ч. 22 м.
    Вид битрейта : Постоянный
    Битрейт : 384 Кбит/сек
    Каналы : 6 каналов
    ChannelLayout : L R C LFE Ls Rs
    Частота : 48, 0 КГц
    Частота кадров : 31, 250 кадров/сек (1536 SPF)
    Битовая глубина : 16 бит
    Метод сжатия : С потерями
    Задержка видео : -42 мс.
    Размер потока : 227 Мбайт (7%)
    Заголовок : Original
    Язык : English
    ServiceKind/String : Complete Main
    Default : Нет
    Forced : Нет
    Текст
    Идентификатор : 5
    Формат : UTF-8
    Идентификатор кодека : S_TEXT/UTF8
    Идентификатор кодека/Информация : UTF-8 Plain Text
    Язык : English
    Default : Нет
    Forced : Нет
    Меню
    00: 00: 00.000 : en: 1
    00: 09: 29.000 : en: 2
    00: 17: 44.000 : en: 3
    00: 21: 55.000 : en: 4
    00: 28: 36.000 : en: 5
    00: 35: 12.000 : en: 6
    00: 42: 34.000 : en: 7
    00: 49: 13.000 : en: 8
    00: 56: 43.000 : en: 9
    01: 02: 39.000 : en: 10
    01: 10: 26.000 : en: 11
    01: 19: 04.000 : en: 12

    Скриншоты для ознакомления



    Все одноименные релизы в Клубе Время раздачи: 24/7 (до появления первых 3-5 скачавших)

    Онлайн видео Измени или умри



    Измени или умри/An Affair to Die For (2018) WEB-DL [H.264/1080p-LQ]
    Рейтинг →
     (голосов: 1, оценка 3/5, голосовать можно 1 раз )

    Другие торренты по теме:

  • Измени или умри / An Affair to Die For (2018) WEB-DLRip
  • Измени или умри / An Affair to Die For (2019) WEBRip [H.264 / 1080p]
  • Измени или умри / An Affair to Die For (2018) WEB-DLRip [H.265] [10-bit]


    • Комментарии (0):

      Информация

      Информация

        Посетители, находящиеся в группе Гости, не могут оставлять комментарии в данной новости.

        ↓ Меню




        ↓ Опрос

        Вы добавили сайт в закладки?
        Да
        Нет


        Популярное