.
Авторизация | Регистрация

bitok.xyz

» » Искусство обмана / Lying and Stealing (2019) BDRip [H.265] [10-bit] торрент скачать бесплатно


    Искусство обмана / Lying and Stealing (2019) BDRip [H.265] [10-bit] торрент скачать бесплатно

    Дата: 1-11-2019, 05:00 | .torrent скачали: 0

    Искусство обмана / Lying and Stealing (2019) BDRip [H.265] [10-bit]Производство: США/50 Degrees Entertainmen
    Жанр: Комедия, Криминал
    Режиссер: Мэтт Аселтон

    Актеры
    Тео Джеймс, Эмили Ратаковски, Фред Меламед, Арис Альварадо, Фернанда Андраде, Тим Бейдер, Джо Букаро III, Rod Chaouqi, Рэй Рэй Чейз, Mia Cheung

    Описание

    Он — эксперт по искусству, вернее… его хищению. Она — модель с задатками актрисы и высоким IQ. Оба любят деньги и риск. Они просто созданы друг для друга… или это лишь фасад, чтобы провернуть изысканную и виртуозную аферу, больше похожую на арт-перформанс?

    Возраст: 18+ (зрителям, достигшим 18 лет. запрещено для детей)
    Рейтинг MPAA: R (лицам до 17 лет обязательно присутствие взрослого)
    Дата мировой премьеры: 21 марта 2019
    Дата российской премьеры: 18 июля 2019, MEGOGO Distribution
    Продолжительность: 01: 40: 14
    Качество видео: BDRip
    Перевод: Дублированный (iTunes)
    Субтитры: Английские
    Видео: HEVC/H.265, 720x300, ~1777 Kbps
    Аудио 1: AC3, 2 ch, 160 Kbps - Русский
    Аудио 2: AC3, 2 ch, 160 Kbps - Английский
    Общее
    Уникальный идентификатор : 173884280835984298654956388220300013276 (0x82D0E4F2F1942EED7BBFD9E94211AEDC)
    Полное имя : Lying.and.Stealing.2019.BDRip.10bit.HEVC.mkv
    Формат : Matroska
    Версия формата : Version 4/Version 2
    Размер файла : 1, 50 Гбайт
    Продолжительность : 1 ч. 40 м.
    Общий поток : 2140 Кбит/сек
    Название фильма : Lying and Stealing 2019
    Программа кодирования : XviD4PSP 8.0.90
    Библиотека кодирования : Lavf58.20.100
    ErrorDetectionType : Per level 1
    ENCODING_INFO : MATROSKA, WEBM MKV
    Видео
    Идентификатор : 1
    Формат : HEVC
    Формат/Информация : High Efficiency Video Coding
    Профиль формата : Main10@L4.1@High
    Идентификатор кодека : V_MPEGH/ISO/HEVC
    Продолжительность : 1 ч. 40 м.
    Битрейт : 1777 Кбит/сек
    Ширина : 720 пикселей
    Высота : 300 пикселей
    Соотношение сторон : 2, 40: 1
    Режим частоты кадров : Постоянный
    Частота кадров : 23, 976 (24000/1001) кадра/сек
    Цветовое пространство : YUV
    Субдискретизация насыщенности : 4: 2: 0
    Битовая глубина : 10 бит
    Бит/(Пиксели*Кадры) : 0.343
    Размер потока : 1, 24 Гбайт (83%)
    Язык : English
    Default : Да
    Forced : Нет
    Цветовой диапазон : Limited
    Основные цвета : BT.709
    Характеристики трансфера : BT.709
    Коэффициенты матрицы : BT.709
    ENCODING_INFO : H264 HEVC NVENC VBR 2000kbps HQ
    Аудио #1
    Идентификатор : 2
    Формат : AC-3
    Формат/Информация : Audio Coding 3
    Параметр Endianness формата : Big
    Идентификатор кодека : A_AC3
    Продолжительность : 1 ч. 40 м.
    Вид битрейта : Постоянный
    Битрейт : 160 Кбит/сек
    Каналы : 2 канала
    Расположение каналов : Front: L R
    Частота : 48, 0 КГц
    Частота кадров : 31, 250 кадров/сек (1536 SPF)
    Битовая глубина : 16 бит
    Метод сжатия : С потерями
    Размер потока : 115 Мбайт (7%)
    Заголовок : Dub iTunes
    Язык : Russian
    ServiceKind/String : Complete Main
    Default : Да
    Forced : Нет
    ENCODING_INFO : AC3 AC3 CBR 160kbps
    Аудио #2
    Идентификатор : 3
    Формат : AC-3
    Формат/Информация : Audio Coding 3
    Параметр Endianness формата : Big
    Идентификатор кодека : A_AC3
    Продолжительность : 1 ч. 40 м.
    Вид битрейта : Постоянный
    Битрейт : 160 Кбит/сек
    Каналы : 2 канала
    Расположение каналов : Front: L R
    Частота : 48, 0 КГц
    Частота кадров : 31, 250 кадров/сек (1536 SPF)
    Битовая глубина : 16 бит
    Метод сжатия : С потерями
    Размер потока : 115 Мбайт (7%)
    Язык : English
    ServiceKind/String : Complete Main
    Default : Нет
    Forced : Нет
    ENCODING_INFO : AC3 AC3 CBR 160kbps
    Текст
    Идентификатор : 4
    Формат : UTF-8
    Идентификатор кодека : S_TEXT/UTF8
    Идентификатор кодека/Информация : UTF-8 Plain Text
    Заголовок : Full
    Язык : English
    Default : Да
    Forced : Нет
    ENCODING_INFO : SUBRIP COPY Быстрое
    Меню
    00: 00: 00.000 : : 00: 00: 00.000
    00: 14: 24.822 : : 00: 14: 24.822
    00: 25: 44.001 : : 00: 25: 44.001
    00: 38: 43.947 : : 00: 38: 43.947
    00: 50: 55.886 : : 00: 50: 55.886
    01: 03: 47.615 : : 01: 03: 47.615
    01: 20: 59.146 : : 01: 20: 59.146
    01: 38: 09.884 : : 01: 38: 09.884

    Скриншоты для ознакомления



    Все одноименные релизы в Клубе
    Время раздачи: 21-23 (до появления первых 3-5 скачавших)

    Онлайн видео Искусство обмана



    Искусство обмана/Lying and Stealing (2019) BDRip [H.265] [10-bit]
    Рейтинг →
     (голосов: 1, оценка 5/5, голосовать можно 1 раз )

    Другие торренты по теме:

  • Cheating Craft / Искусство обмана [2016, TV, 1 из 12] WEB-DLRip 720p raw
  • Ираклий Шанидзе | Фотография. Искусство обмана (2018) [PDF]
  • Искусство обмана / Lying and Stealing (2019) WEB-DLRip [H.264 / 720p-LQ] [MVO] [AD]
  • Искусство обмана / Lying and Stealing (2019) WEB-DLRip [H.264] [MVO]
  • Искусство обмана / Lying and Stealing (2019) WEB-DL [H.265 / 1080p-LQ] [10-bit] [MVO]
  • Искусство обмана / Lying and Stealing (2019) WEB-DLRip [H.265 / 720p-LQ] [10-bit] [MVO]
  • Искусство обмана / Lying and Stealing (2019) WEB-DLRip [H.265] [10-bit] [MVO]
  • Искусство обмана / Lying and Stealing (2019) WEB-DL [H.264 / 1080p-LQ] [MVO]


    • Комментарии (0):

      Информация

      Информация

        Посетители, находящиеся в группе Гости, не могут оставлять комментарии в данной новости.

        ↓ Меню




        ↓ Опрос

        Вы добавили сайт в закладки?
        Да
        Нет


        Популярное