.
Авторизация | Регистрация

bitok.xyz

» » Искусство обмана / Lying and Stealing (2019) BDRemux [H.264 / 1080p] торрент скачать бесплатно


    Искусство обмана / Lying and Stealing (2019) BDRemux [H.264 / 1080p] торрент скачать бесплатно

    Дата: 1-11-2019, 05:00 | .torrent скачали: 0

    Искусство обмана / Lying and Stealing (2019) BDRemux [H.264 / 1080p]Производство: США, 50 Degrees Entertainment
    Жанр: Комедия, криминал
    Режиссер: Мэтт Аселтон

    Актеры
    Тео Джеймс, Эмили Ратаковски, Фред Меламед, Арис Альварадо, Фернанда Андраде, Тим Бейдер, Джо Букаро III, Rod Chaouqi, Рэй Рэй Чейз, Mia Cheung

    Описание

    Он — эксперт по искусству, вернее… его хищению. Она — модель с задатками актрисы и высоким IQ. Оба любят деньги и риск. Они просто созданы друг для друга… или это лишь фасад, чтобы провернуть изысканную и виртуозную аферу, больше похожую на арт-перформанс?

    Возраст: 18+ (зрителям, достигшим 18 лет. запрещено для детей)
    Рейтинг MPAA: R (лицам до 17 лет обязательно присутствие взрослого)
    Дата мировой премьеры: 21 марта 2019
    Дата российской премьеры: 18 июля 2019
    Релиз от: mike7025
    Продолжительность: 01: 40: 15
    Качество видео: BDRemux
    Перевод: Дублированный, многоголосый профессиональный
    Субтитры: Английские, французские
    Видео: AVC/H.264, 1920х1080, ~28.6 Mbps
    Аудио 1: AC3, 6 ch, 384 Kbps - Русский (Dub, iTunes)
    Аудио 2: АC3, 2 ch, 192 Kbps - Русский (МVO, HDRezka Studio)!ненормативная лексика!
    Аудио 3: АC3, 2 ch, 192 Kbps - Украинский МVO
    Аудио 4: DTS-HD MA, 6 ch, 3747 Kbps - Английский
    General
    Unique ID : 185678664021101694661235007501946456025 (0x8BB068EFADBAB8755EEF43BE390607D9)
    Complete name : G: Lying.And.Stealing.2019.REMUX.mkv
    Format : Matroska
    Format version : Version 4/Version 2
    File size : 23.2 GiB
    Duration : 1 h 40 min
    Overall bit rate mode : Variable
    Overall bit rate : 33.1 Mb/s
    Encoded date : UTC 2019-10-31 01: 50: 46
    Writing application : mkvmerge v20.0.0 (\'I Am The Sun\') 64-bit
    Writing library : libebml v1.3.5 + libmatroska v1.4.8
    Video
    ID : 1
    Format : AVC
    Format/Info : Advanced Video Codec
    Format profile : High@L4.1
    Format settings : CABAC/4 Ref Frames
    Format settings, CABAC : Yes
    Format settings, RefFrames : 4 frames
    Codec ID : V_MPEG4/ISO/AVC
    Duration : 1 h 40 min
    Bit rate mode : Variable
    Bit rate : 28.6 Mb/s
    Maximum bit rate : 35.0 Mb/s
    Width : 1 920 pixels
    Height : 1 080 pixels
    Display aspect ratio : 16: 9
    Frame rate mode : Constant
    Frame rate : 23.976 (24000/1001) FPS
    Standard : NTSC
    Color space : YUV
    Chroma subsampling : 4: 2: 0
    Bit depth : 8 bits
    Scan type : Progressive
    Bits/(Pixel*Frame) : 0.574
    Stream size : 20.0 GiB (86%)
    Language : English
    Default : Yes
    Forced : No
    Color range : Limited
    Color primaries : BT.709
    Transfer characteristics : BT.709
    Matrix coefficients : BT.709
    Audio #1
    ID : 2
    Format : AC-3
    Format/Info : Audio Coding 3
    Codec ID : A_AC3
    Duration : 1 h 40 min
    Bit rate mode : Constant
    Bit rate : 384 kb/s
    Channel(s) : 6 channels
    Channel positions : Front: L C R, Side: L R, LFE
    Sampling rate : 48.0 kHz
    Frame rate : 31.250 FPS (1536 SPF)
    Bit depth : 16 bits
    Compression mode : Lossy
    Stream size : 275 MiB (1%)
    Title : Dub iTunes
    Language : Russian
    Service kind : Complete Main
    Default : Yes
    Forced : No
    Audio #2
    ID : 3
    Format : AC-3
    Format/Info : Audio Coding 3
    Codec ID : A_AC3
    Duration : 1 h 40 min
    Bit rate mode : Constant
    Bit rate : 192 kb/s
    Channel(s) : 2 channels
    Channel positions : Front: L R
    Sampling rate : 48.0 kHz
    Frame rate : 31.250 FPS (1536 SPF)
    Bit depth : 16 bits
    Compression mode : Lossy
    Stream size : 138 MiB (1%)
    Title : MVO HDrezka Studio
    Language : Russian
    Service kind : Complete Main
    Default : No
    Forced : No
    Audio #3
    ID : 4
    Format : AC-3
    Format/Info : Audio Coding 3
    Codec ID : A_AC3
    Duration : 1 h 40 min
    Bit rate mode : Constant
    Bit rate : 192 kb/s
    Channel(s) : 2 channels
    Channel positions : Front: L R
    Sampling rate : 48.0 kHz
    Frame rate : 31.250 FPS (1536 SPF)
    Bit depth : 16 bits
    Compression mode : Lossy
    Stream size : 138 MiB (1%)
    Language : Ukrainian
    Service kind : Complete Main
    Default : No
    Forced : No
    Audio #4
    ID : 5
    Format : DTS
    Format/Info : Digital Theater Systems
    Format profile : MA/Core
    Codec ID : A_DTS
    Duration : 1 h 40 min
    Bit rate mode : Variable/Constant
    Bit rate : 3 747 kb/s/1 509 kb/s
    Channel(s) : 6 channels
    Channel positions : Front: L C R, Side: L R, LFE
    Sampling rate : 48.0 kHz
    Frame rate : 93.750 FPS (512 SPF)
    Bit depth : 24 bits
    Compression mode : Lossless/Lossy
    Stream size : 2.62 GiB (11%)
    Language : English
    Default : No
    Forced : No
    Text #1
    ID : 6
    Format : UTF-8
    Codec ID : S_TEXT/UTF8
    Codec ID/Info : UTF-8 Plain Text
    Duration : 1 h 36 min
    Bit rate : 63 b/s
    Count of elements : 1643
    Stream size : 45.3 KiB (0%)
    Language : English
    Default : No
    Forced : No
    Text #2
    ID : 7
    Format : PGS
    Muxing mode : zlib
    Codec ID : S_HDMV/PGS
    Codec ID/Info : Picture based subtitle format used on BDs/HD-DVDs
    Duration : 1 h 39 min
    Bit rate : 32.3 kb/s
    Count of elements : 2868
    Stream size : 23.0 MiB (0%)
    Title : French-PGS
    Language : French
    Default : No
    Forced : No
    Menu
    00: 00: 00.000 : en: Chapter 01
    00: 14: 24.822 : en: Chapter 02
    00: 25: 44.125 : en: Chapter 03
    00: 38: 43.946 : en: Chapter 04
    00: 50: 55.719 : en: Chapter 05
    01: 03: 47.406 : en: Chapter 06
    01: 20: 58.979 : en: Chapter 07
    01: 38: 09.592 : en: Chapter 08

    Скриншоты для ознакомления




    Все одноименные релизы в Клубе
    Время раздачи: 24/7 (до появления первых 3-5 скачавших)

    Онлайн видео Искусство обмана



    Искусство обмана/Lying and Stealing (2019) BDRemux [H.264/1080p]
    Рейтинг →
     (голосов: 1, оценка 3/5, голосовать можно 1 раз )

    Другие торренты по теме:

  • Cheating Craft / Искусство обмана [2016, TV, 1 из 12] WEB-DLRip 720p raw
  • Ираклий Шанидзе | Фотография. Искусство обмана (2018) [PDF]
  • Искусство обмана / Lying and Stealing (2019) WEB-DLRip [H.264 / 720p-LQ] [MVO] [AD]
  • Искусство обмана / Lying and Stealing (2019) WEB-DLRip [H.264] [MVO]
  • Искусство обмана / Lying and Stealing (2019) WEB-DL [H.265 / 1080p-LQ] [10-bit] [MVO]
  • Искусство обмана / Lying and Stealing (2019) WEB-DLRip [H.265 / 720p-LQ] [10-bit] [MVO]
  • Искусство обмана / Lying and Stealing (2019) WEB-DLRip [H.265] [10-bit] [MVO]
  • Искусство обмана / Lying and Stealing (2019) WEB-DL [H.264 / 1080p-LQ] [MVO]


    • Комментарии (0):

      Информация

      Информация

        Посетители, находящиеся в группе Гости, не могут оставлять комментарии в данной новости.

        ↓ Меню




        ↓ Опрос

        Вы добавили сайт в закладки?
        Да
        Нет


        Популярное