.
Авторизация | Регистрация

bitok.xyz

» » Побег из Шоушенка / The Shawshank Redemption (1994) BDRip [H.265 / 1080p] [10-bit] торрент скачать бесплатно


    Побег из Шоушенка / The Shawshank Redemption (1994) BDRip [H.265 / 1080p] [10-bit] торрент скачать бесплатно

    Дата: 1-11-2019, 05:00 | .torrent скачали: 0

    Побег из Шоушенка / The Shawshank Redemption (1994) BDRip [H.265 / 1080p] [10-bit]Производство: США/Castle Rock Entertainment
    Жанр: Драма
    Режиссер: Фрэнк Дарабонт

    Актеры
    Тим Роббинс, Морган Фриман, Боб Гантон, Уильям Сэдлер, Клэнси Браун, Джил Беллоуз, Марк Ролстон, Джеймс Уайтмор

    Описание

    Шоушенк — название тюрьмы. И если тебе нет еще 30-ти, а ты получаешь пожизненное, то приготовься к худшему: для тебя выхода из Шоушенка не будет! Актриса Рита Хэйворт — любимица всей Америки. Энди Дифрейну она тоже очень нравилась. Рита никогда не слышала о существовании Энди, однако жизнь Дифрейну, бывшему вице-президенту крупного банка, осужденному за убийство жены и ее любовника, Рита Хэйворт все-таки спасла.

    Возраст: 16+ (зрителям, достигшим 16 лет)
    Рейтинг MPAA: R (лицам до 17 лет обязательно присутствие взрослого)
    Релиз от: Mr. Fox (HEVC-CLUB)
    Продолжительность: 02: 22: 33
    Качество видео: BDRip
    Перевод: Многоголосый профессиональный, авторский одноголосый
    Субтитры: Русские (форсированные, полные, SDH), английские
    Видео: HEVC/H.265, 1920x1080, ~7819 Kbps
    Аудио 1: AC3, 6 ch, 640 Kbps - Русский, MVO (Киномания)
    Аудио 2: AC3, 6 ch, 640 Kbps - Русский, MVO (СОЮЗ Видео)
    Аудио 3: AC3, 6 ch, 640 Kbps - Русский, AVO (Гаевский)
    Аудио 4: AC3, 6 ch, 640 Kbps - Английский
    Общее
    Уникальный идентификатор : 18008600222689748228941316175634638834 (0xD8C548AC66318B6844915101F9827F2)
    Полное имя : R: The Shawshank Redemption. 1994. 1080p. HEVC. 10bit.mkv
    Формат : Matroska
    Версия формата : Version 4/Version 2
    Размер файла : 10, 3 Гбайт
    Продолжительность : 2 ч. 22 м.
    Общий поток : 10, 4 Мбит/сек
    Название фильма : Mr. Fox
    Дата кодирования : UTC 2019-10-31 08: 08: 23
    Программа кодирования : mkvmerge v28.2.0 (\'The Awakening\') 64-bit
    Библиотека кодирования : libebml v1.3.6 + libmatroska v1.4.9
    Обложка : Yes
    Attachments : cover.jpg
    Видео
    Идентификатор : 1
    Формат : HEVC
    Формат/Информация : High Efficiency Video Coding
    Профиль формата : Main10@L4.1@High
    Идентификатор кодека : V_MPEGH/ISO/HEVC
    Продолжительность : 2 ч. 22 м.
    Битрейт : 7819 Кбит/сек
    Ширина : 1920 пикселей
    Высота : 1080 пикселей
    Соотношение сторон : 16: 9
    Режим частоты кадров : Постоянный
    Частота кадров : 23, 976 (23976/1000) кадра/сек
    Частота кадров в оригинале : 23, 976 (24000/1001) кадра/сек
    Цветовое пространство : YUV
    Субдискретизация насыщенности : 4: 2: 0
    Битовая глубина : 10 бит
    Бит/(Пиксели*Кадры) : 0.157
    Размер потока : 7, 79 Гбайт (75%)
    Библиотека кодирования : x265 3.0_Au+4-dcbec33bfb0f: WindowsMSVC 191664 bit 10bit
    Настройки программы : cpuid=1111039/frame-threads=3/numa-pools=12/wpp/no-pmode/no-pme/no-psnr/no-ssim/log-level=2/input-csp=1/input-res=1920x1080/interlace=0/total-frames=100809/level-idc=41/high-tier=1/uhd-bd=0/ref=5/no-allow-non-conformance/no-repeat-t_heads/annexb/no-aud/no-hrd/info/hash=0/no-temporal-layers/open-gop/min-keyint=23/keyint=240/gop-lookahead=0/bframes=10/b-adapt=2/b-pyramid/bframe-bias=0/rc-lookahead=60/lookahead-slices=4/scenecut=40/radl=0/no-splice/no-intra-refresh/ctu=32/min-cu-size=8/rect/amp/max-tu-size=32/tu-inter-depth=4/tu-intra-depth=4/limit-tu=1/rdoq-level=2/dynamic-rd=0.00/no-ssim-rd/signhide/no-tskip/nr-intra=0/nr-inter=0/no-constrained-intra/no-strong-intra-smoothing/max-merge=4/limit-refs=2/limit-modes/me=3/subme=7/merange=57/temporal-mvp/weightp/weightb/no-analyze-src-pics/deblock=-3: -3/no-sao/no-sao-non-deblock/rd=6/no-early-skip/no-rskip/no-fast-intra/no-tskip-fast/no-cu-lossless/no-b-intra/no-splitrd-skip/rdpenalty=0/psy-rd=2.00/psy-rdoq=1.00/no-rd-refine/no-lossless/cbqpoffs=0/crqpoffs=0/rc=crf/crf=20.5/qcomp=0.60/qpstep=4/stats-write=0/stats-read=0/vbv-maxrate=50000/vbv-bufsize=50000/vbv-init=0.9/crf-max=0.0/crf-min=0.0/ipratio=1.40/pbratio=1.30/aq-mode=1/aq-strength=1.00/no-cutree/zone-count=0/no-strict-cbr/qg-size=32/no-rc-grain/qpmax=69/qpmin=0/no-const-vbv/sar=1/overscan=0/videoformat=5/range=0/colorprim=2/transfer=2/colormatrix=2/chromaloc=0/display-window=0/max-cll=0, 0/min-luma=0/max-luma=1023/log2-max-poc-lsb=8/vui-timing-info/vui-hrd-info/slices=1/no-opt-qp-pps/no-opt-ref-list-length-pps/no-multi-pass-opt-rps/scenecut-bias=0.05/no-opt-cu-delta-qp/no-aq-motion/no-hdr/no-hdr-opt/no-dhdr10-opt/no-idr-recovery-sei/analysis-reuse-level=5/scale-factor=0/refine-intra=0/refine-inter=0/refine-mv=0/refine-ctu-distortion=0/no-limit-sao/ctu-info=0/no-lowpass-dct/refine-analysis-type=0/copy-pic=1/max-ausize-factor=1.0/no-dynamic-refine/no-single-sei/no-hevc-aq/qp-adaptation-range=1.00
    Default : Да
    Forced : Нет
    Аудио #1
    Идентификатор : 2
    Формат : AC-3
    Формат/Информация : Audio Coding 3
    Идентификатор кодека : A_AC3
    Продолжительность : 2 ч. 22 м.
    Вид битрейта : Постоянный
    Битрейт : 640 Кбит/сек
    Каналы : 6 каналов
    Расположение каналов : Front: L C R, Side: L R, LFE
    Частота : 48, 0 КГц
    Частота кадров : 31, 250 кадров/сек (1536 SPF)
    Битовая глубина : 16 бит
    Метод сжатия : С потерями
    Размер потока : 653 Мбайт (6%)
    Заголовок : AC3 5.1 640 kbps MVO, Киномания
    Язык : Russian
    ServiceKind/String : Complete Main
    Default : Нет
    Forced : Нет
    Аудио #2
    Идентификатор : 3
    Формат : AC-3
    Формат/Информация : Audio Coding 3
    Идентификатор кодека : A_AC3
    Продолжительность : 2 ч. 22 м.
    Вид битрейта : Постоянный
    Битрейт : 640 Кбит/сек
    Каналы : 6 каналов
    Расположение каналов : Front: L C R, Side: L R, LFE
    Частота : 48, 0 КГц
    Частота кадров : 31, 250 кадров/сек (1536 SPF)
    Битовая глубина : 16 бит
    Метод сжатия : С потерями
    Размер потока : 653 Мбайт (6%)
    Заголовок : AC3 5.1 640 kbps MVO, СОЮЗ Видео
    Язык : Russian
    ServiceKind/String : Complete Main
    Default : Нет
    Forced : Нет
    Аудио #3
    Идентификатор : 4
    Формат : AC-3
    Формат/Информация : Audio Coding 3
    Идентификатор кодека : A_AC3
    Продолжительность : 2 ч. 22 м.
    Вид битрейта : Постоянный
    Битрейт : 640 Кбит/сек
    Каналы : 6 каналов
    Расположение каналов : Front: L C R, Side: L R, LFE
    Частота : 48, 0 КГц
    Частота кадров : 31, 250 кадров/сек (1536 SPF)
    Битовая глубина : 16 бит
    Метод сжатия : С потерями
    Размер потока : 653 Мбайт (6%)
    Заголовок : AC3 5.1 640 kbps AVO, Евгений Гаевский
    Язык : Russian
    ServiceKind/String : Complete Main
    Default : Нет
    Forced : Нет
    Аудио #4
    Идентификатор : 5
    Формат : AC-3
    Формат/Информация : Audio Coding 3
    Идентификатор кодека : A_AC3
    Продолжительность : 2 ч. 22 м.
    Вид битрейта : Постоянный
    Битрейт : 640 Кбит/сек
    Каналы : 6 каналов
    Расположение каналов : Front: L C R, Side: L R, LFE
    Частота : 48, 0 КГц
    Частота кадров : 31, 250 кадров/сек (1536 SPF)
    Битовая глубина : 16 бит
    Метод сжатия : С потерями
    Размер потока : 653 Мбайт (6%)
    Заголовок : AC3 5.1 640 kbps, Английский
    Язык : English
    ServiceKind/String : Complete Main
    Default : Нет
    Forced : Нет
    Текст #1
    Идентификатор : 6
    Формат : UTF-8
    Идентификатор кодека : S_TEXT/UTF8
    Идентификатор кодека/Информация : UTF-8 Plain Text
    Продолжительность : 2 ч. 17 м.
    Битрейт : 0 бит/сек
    ElementCount : 13
    Размер потока : 702 байт (0%)
    Заголовок : форс. (Киномания)
    Язык : Russian
    Default : Да
    Forced : Да
    Текст #2
    Идентификатор : 7
    Формат : UTF-8
    Идентификатор кодека : S_TEXT/UTF8
    Идентификатор кодека/Информация : UTF-8 Plain Text
    Продолжительность : 2 ч. 17 м.
    Битрейт : 91 бит/сек
    ElementCount : 1113
    Размер потока : 91, 9 Кбайт (0%)
    Заголовок : Киномания
    Язык : Russian
    Default : Нет
    Forced : Нет
    Текст #3
    Идентификатор : 8
    Формат : UTF-8
    Идентификатор кодека : S_TEXT/UTF8
    Идентификатор кодека/Информация : UTF-8 Plain Text
    Продолжительность : 2 ч. 17 м.
    Битрейт : 115 бит/сек
    ElementCount : 1894
    Размер потока : 116 Кбайт (0%)
    Заголовок : SDH
    Язык : Russian
    Default : Нет
    Forced : Нет
    Текст #4
    Идентификатор : 9
    Формат : UTF-8
    Идентификатор кодека : S_TEXT/UTF8
    Идентификатор кодека/Информация : UTF-8 Plain Text
    Продолжительность : 2 ч. 15 м.
    Битрейт : 56 бит/сек
    ElementCount : 1687
    Размер потока : 56, 1 Кбайт (0%)
    Язык : English
    Default : Нет
    Forced : Нет
    Меню
    00: 00: 00.000 : en: On Trial
    00: 04: 39.967 : en: Icy/remorseless
    00: 06: 39.500 : en: This guy who can get it
    00: 10: 06.800 : en: A stiff breeze and other arrivals
    00: 13: 53.133 : en: Fresh fish
    00: 17: 58.967 : en: Nameless
    00: 23: 41.967 : en: First request
    00: 28: 59.467 : en: Andy\'s routine
    00: 33: 30.967 : en: Beer on the roof
    00: 38: 48.634 : en: Just like everybody else
    00: 41: 03.967 : en: Second request
    00: 42: 38.133 : en: A pair of beatings
    00: 46: 11.666 : en: Welcome back
    00: 48: 11.633 : en: Cell toss
    00: 51: 18.500 : en: A cottage industry
    00: 57: 15.800 : en: Exactly what they take
    01: 00: 23.966 : en: Brooks was here
    01: 05: 41.966 : en: A shipment for Andy
    01: 07: 12.666 : en: Time out for Mozart
    01: 10: 59.466 : en: The danger of hope
    01: 13: 48.833 : en: Parole rejection present
    01: 15: 51.133 : en: Keeping the books
    01: 21: 03.466 : en: A crook in prison
    01: 23: 53.966 : en: Tommy Williams
    01: 29: 20.966 : en: Elmo Blatch
    01: 32: 04.999 : en: Solitary
    01: 35: 31.466 : en: Sniper\'s target
    01: 38: 22.966 : en: Catching Norton\'s drift
    01: 40: 32.466 : en: A certain hay field
    01: 47: 16.799 : en: The longest night
    01: 50: 39.499 : en: Vanished
    01: 54: 24.299 : en: Andy\'s way out
    02: 00: 28.332 : en: His judgement cometh
    02: 04: 01.965 : en: Not meant to be caged
    02: 05: 43.465 : en: Rehabilitated?
    02: 08: 18.165 : en: On the outside
    02: 10: 05.798 : en: Honoring a promise
    02: 12: 48.298 : en: No good thing ever dies
    02: 16: 19.631 : en: A free man\'s dreams
    02: 17: 59.331 : en: Dedication and End Credits


    Онлайн видео Побег из Шоушенка



    Побег из Шоушенка/The Shawshank Redemption (1994) BDRip [H.265/1080p] [10-bit]
    Рейтинг →
     (голосов: 1, оценка 5/5, голосовать можно 1 раз )

    Другие торренты по теме:

  • Побег из Шоушенка / The Shawshank Redemption (1994) BDRip [H.264] скачать через торрент бесплатно
  • Побег из Шоушенка / The Shawshank Redemption (1994) BDRip [1080p] скачать через торрент бесплатно
  • Побег из Шоушенка / The Shawshank Redemption (1994) BDRip [720p] ATV
  • Побег из Шоушенка / The Shawshank Redemption (1994) BDRip [H.264 / 1080p] скачать через торрент бесплатно
  • Побег из Шоушенка / The Shawshank Redemption (1994) BDRip [H.264 / 720p-LQ] скачать через торрент бесплатно
  • Побег из Шоушенка / The Shawshank Redemption (1994) Blu-ray [VC-1 / 1080p] скачать через торрент бесплатно
  • Побег из Шоушенка / The Shawshank Redemption (1994) BDRip [H.265 / 1080p] скачать через торрент бесплатно
  • Побег из Шоушенка / The Shawshank Redemption (1994) BDRip [H.264] скачать через торрент бесплатно


    • Комментарии (0):

      Информация

      Информация

        Посетители, находящиеся в группе Гости, не могут оставлять комментарии в данной новости.

        ↓ Меню




        ↓ Опрос

        Вы добавили сайт в закладки?
        Да
        Нет


        Популярное