.
Авторизация | Регистрация

bitok.xyz

» » Бывшие (2019) WEBRip [H.264 / 1080p-LQ] (сезон 2, серии 1-2 из 8) (обновляемая) торрент скачать бесплатно


    Бывшие (2019) WEBRip [H.264 / 1080p-LQ] (сезон 2, серии 1-2 из 8) (обновляемая) торрент скачать бесплатно

    Дата: 1-11-2019, 05:00 | .torrent скачали: 0

    Бывшие (2019) WEBRip [H.264 / 1080p-LQ] (сезон 2, серии 1-2 из 8) (обновляемая)Производство: Россия/Yellow, Black and White
    Жанр: драма
    Режиссер: Иван Китаев

    Актеры
    Любовь Аксенова, Денис Шведов, Виталий Хаев, Григорий Чабан, Леонид Громов, Даниил Вахрушев, Линда Лапиньш, Анна Глаубэ, Софья Лебедева, Сергей Лобынцев и др.

    Описание

    Главная героиня сериала — Яна — пациентка реабилитационной клиники для алкоголиков и наркозависимых. Перед ней стоит нелегкий путь к выздоровлению. Но однажды в жизни Яны все меняется. Она встречает Илью — нового психолога-консультанта. Поначалу девушка для него — очередная сложная пациентка, но постепенно Илья начинает видеть таланты Яны, раскрывающиеся в процессе выздоровления. Зарождаются новые чувства, неожиданные для обоих…

    Возраст: 16+ (зрителям, достигшим 16 лет)
    Релиз от: Getty
    Продолжительность: ~00: 50: 00 серия
    Качество видео: WEBRip
    Видео: AVC/H.264, 1920x1080 (16: 9), ~6435 Kbps
    Аудио: AC3, 2 ch, 192 Kbps
    Общее
    Уникальный идентификатор : 179040851205062128452360499677372323363 (0x86B2037F402AC649936FDE744DFB9623)
    Полное имя : G: Byvshie.S02.2019.WEB-DLByvshie.s02e01.mkv
    Формат : Matroska
    Версия формата : Version 4
    Размер файла : 2, 34 Гбайт
    Продолжительность : 50 м. 36 с.
    Общий поток : 6627 Кбит/сек
    Название фильма : Byvshie.s02e01.2019.WEB-DL.(1080p).Getty
    Дата кодирования : UTC 2019-10-30 20: 35: 02
    Программа кодирования : mkvmerge v7.8.0 (\'River Man\') 32bit built on Mar 27 2015 16: 18: 02
    Библиотека кодирования : libebml v1.3.1 + libmatroska v1.4.2
    Видео
    Идентификатор : 1
    Формат : AVC
    Формат/Информация : Advanced Video Codec
    Профиль формата : High@L4
    Настройки формата : CABAC/4 Ref Frames
    Параметр CABAC формата : Да
    Параметр RefFrames формата : 4 кадра
    Идентификатор кодека : V_MPEG4/ISO/AVC
    Продолжительность : 50 м. 36 с.
    Битрейт : 6433 Кбит/сек
    Ширина : 1920 пикселей
    Высота : 1080 пикселей
    Соотношение сторон : 16: 9
    Режим частоты кадров : Постоянный
    Частота кадров : 23, 976 (24000/1001) кадра/сек
    Цветовое пространство : YUV
    Субдискретизация насыщенности : 4: 2: 0
    Битовая глубина : 8 бит
    Тип развёртки : Прогрессивная
    Бит/(Пиксели*Кадры) : 0.129
    Размер потока : 2, 27 Гбайт (97%)
    Default : Да
    Forced : Нет
    Аудио
    Идентификатор : 2
    Формат : AC-3
    Формат/Информация : Audio Coding 3
    Коммерческое название : Dolby Digital
    Идентификатор кодека : A_AC3
    Продолжительность : 50 м. 36 с.
    Вид битрейта : Постоянный
    Битрейт : 192 Кбит/сек
    Каналы : 2 канала
    ChannelLayout : L R
    Частота : 48, 0 КГц
    Частота кадров : 31, 250 кадров/сек (1536 SPF)
    Метод сжатия : С потерями
    Размер потока : 69, 5 Мбайт (3%)
    ServiceKind/String : Complete Main
    Default : Да
    Forced : Нет

    Скриншоты для ознакомления



    Все одноименные релизы в Клубе
    Время раздачи: 24/7 (круглосуточно) (до появления первых 3-5 скачавших)

    Онлайн видео Бывшие (2019) WEBRip [H.264



    Бывшие (2019) WEBRip [H.264/1080p-LQ] (сезон 2, серии 1-2 из 8) (обновляемая)
    Рейтинг →
     (голосов: 1, оценка 4/5, голосовать можно 1 раз )

    Другие торренты по теме:

  • Бывшие (2019) WEBRip (сезон 2, серии 1-2 из 8) (обновляемая)


    • Комментарии (0):

      Информация

      Информация

        Посетители, находящиеся в группе Гости, не могут оставлять комментарии в данной новости.

        ↓ Меню




        ↓ Опрос

        Вы добавили сайт в закладки?
        Да
        Нет


        Популярное