.
Авторизация | Регистрация

bitok.xyz

» » Бывшие (2019) WEBRip (сезон 2, серии 1-2 из 8) (обновляемая) торрент скачать бесплатно


    Бывшие (2019) WEBRip (сезон 2, серии 1-2 из 8) (обновляемая) торрент скачать бесплатно

    Дата: 1-11-2019, 05:00 | .torrent скачали: 0

    Бывшие (2019) WEBRip (сезон 2, серии 1-2 из 8) (обновляемая)Производство: Россия/Yellow, Black and White
    Жанр: драма
    Режиссер: Иван Китаев

    Актеры
    Любовь Аксенова, Денис Шведов, Виталий Хаев, Григорий Чабан, Леонид Громов, Даниил Вахрушев, Линда Лапиньш, Анна Глаубэ, Софья Лебедева, Сергей Лобынцев и др.

    Описание

    Главная героиня сериала — Яна — пациентка реабилитационной клиники для алкоголиков и наркозависимых. Перед ней стоит нелегкий путь к выздоровлению. Но однажды в жизни Яны все меняется. Она встречает Илью — нового психолога-консультанта. Поначалу девушка для него — очередная сложная пациентка, но постепенно Илья начинает видеть таланты Яны, раскрывающиеся в процессе выздоровления. Зарождаются новые чувства, неожиданные для обоих…

    Возраст: 16+ (зрителям, достигшим 16 лет)
    Продолжительность: ~00: 50: 00 серия
    Качество видео: WEBRip
    Видео: Xvid, 720x336, ~1350 Kbps
    Аудио: AC3, 2 ch, 192 Kbps
    Общее
    Полное имя : G: Byvdhie.s02.2019s02.e01.Byvdhie.avi
    Формат : AVI
    Формат/Информация : Audio Video Interleave
    Размер файла : 557 Мбайт
    Продолжительность : 50 м. 32 с.
    Общий поток : 1541 Кбит/сек
    Программа кодирования : VirtualDubMod 1.5.10.3 |www.virtualdub-fr.org|| (build 2550/release)
    Библиотека кодирования : VirtualDubMod build 2550/release
    Видео
    Идентификатор : 0
    Формат : MPEG-4 Visual
    Профиль формата : Advanced Simple@L5
    Настройки формата : BVOP1/Custom Matrix
    Параметр BVOP формата : 1
    Параметр QPel формата : Нет
    Параметр GMC формата : Без точки перехода
    Параметр матрицы формата : Выборочная
    Идентификатор кодека : XVID
    Идентификатор кодека/Подсказка : XviD
    Продолжительность : 50 м. 32 с.
    Битрейт : 1340 Кбит/сек
    Ширина : 720 пикселей
    Высота : 336 пикселей
    Соотношение сторон : 2, 143
    Частота кадров : 23, 976 (24000/1001) кадра/сек
    Цветовое пространство : YUV
    Субдискретизация насыщенности : 4: 2: 0
    Битовая глубина : 8 бит
    Тип развёртки : Прогрессивная
    Метод сжатия : С потерями
    Бит/(Пиксели*Кадры) : 0.231
    Размер потока : 484 Мбайт (87%)
    Библиотека кодирования : XviD 73
    Аудио
    Идентификатор : 1
    Формат : AC-3
    Формат/Информация : Audio Coding 3
    Коммерческое название : Dolby Digital
    Идентификатор кодека : 2000
    Продолжительность : 50 м. 32 с.
    Вид битрейта : Постоянный
    Битрейт : 192 Кбит/сек
    Каналы : 2 канала
    ChannelLayout : L R
    Частота : 48, 0 КГц
    Частота кадров : 31, 250 кадров/сек (1536 SPF)
    Метод сжатия : С потерями
    Размер потока : 69, 4 Мбайт (12%)
    Выравнивание : Разделение по промежуткам
    Продолжительность промежутка : 42 мс. (1, 00 видеокадр)
    Время предзагрузки промежутка : 500 мс.
    ServiceKind/String : Complete Main

    Скриншоты для ознакомления



    Все одноименные релизы в Клубе
    Время раздачи: 24/7 (круглосуточно) (до появления первых 3-5 скачавших)

    Онлайн видео Бывшие (2019) WEBRip (сезон любимого сериала 2, серии 1



    Бывшие (2019) WEBRip (сезон 2, серии 1-2 из 8) (обновляемая)
    Рейтинг →
     (голосов: 1, оценка 3/5, голосовать можно 1 раз )

    Другие торренты по теме:

  • Бывшие (2019) WEBRip [H.264 / 1080p-LQ] (сезон 2, серии 1-2 из 8) (обновляемая)


    • Комментарии (0):

      Информация

      Информация

        Посетители, находящиеся в группе Гости, не могут оставлять комментарии в данной новости.

        ↓ Меню




        ↓ Опрос

        Вы добавили сайт в закладки?
        Да
        Нет


        Популярное