.
Авторизация | Регистрация
bitok.xyz
Торрент скачать бесплатно Фильмы торрент скачать Бассейн / La piscine (1969) [720p] BDRip торрент скачать бесплатно


    Бассейн / La piscine (1969) [720p] BDRip торрент скачать бесплатно

    Дата: 2-11-2019, 11:36 | .torrent скачали: 2

    Бассейн / La piscine (1969) [720p] BDRipПроизводство: Франция, Италия/Société Nouvelle de Cinématographie (SNC), Tritone Cinematografica
    Жанр: драма, мелодрама, криминал
    Режиссер: Жак Дере

    Актеры
    Ален Делон, Роми Шнайдер, Джейн Биркин, Морис Роне, Поль Кроше, Мэддли Бейми, Сюзи Жаспар, Тьерри Шабер, Стив Экхардт, Рут Прайс

    Описание

    Жан-Поль и Марианна проводят отпуск на Лазурном берегу, в идеальной атмосфере на вилле друзей. Но летняя идиллия прерывается вторжением их друга, бывшего любовника Марианны.
    Безмятежное состояние героев сменяется обжигающим напряжением, затаённой ревностью, гнетущими намеками и страстями…

    Возраст: 16+ (зрителям, достигшим 16 лет)
    Рейтинг MPAA: G (нет возрастных ограничений)
    Продолжительность: 02: 02: 23
    Качество видео: BDRip 720p
    Перевод: Дублированный (Советский Мосфильм)
    Субтитры: отсутствуют
    Видео: AVC/H.264, 1184х720, ~4888 Kbps
    Аудио 1: AC3, 6 ch, 448 Kbps - русский дублированный (Советский Мосфильм)
    Аудио 2: AC3, 2 ch, 224 Kbps - французский
    Общее
    Уникальный идентификатор : 219501257946057135649633929928106195286 (0xA5226790A5CBACBD85D6941B5D263956)
    Полное имя : D: NNM-ClubBassejn.1969.x264.BDRip.HDClub.mkv
    Формат : Matroska
    Версия формата : Version 1
    Размер файла : 4, 76 Гбайт
    Продолжительность : 2 ч. 2 м.
    Общий поток : 5563 Кбит/сек
    Название фильма : La Piscine (1969) - Release for HDCLUB
    Дата кодирования : UTC 2009-01-20 13: 22: 30
    Программа кодирования : mkvmerge v2.1.0 (\'Another Place To Fall\') built on Aug 19 2007 13: 40: 07
    Библиотека кодирования : libebml v0.7.7 + libmatroska v0.8.1
    Видео
    Идентификатор : 1
    Формат : AVC
    Формат/Информация : Advanced Video Codec
    Профиль формата : High@L4.1
    Настройки формата : CABAC/5 Ref Frames
    Параметр CABAC формата : Да
    Параметр RefFrames формата : 5 кадров
    Параметр GOP формата : N=1
    Идентификатор кодека : V_MPEG4/ISO/AVC
    Продолжительность : 2 ч. 2 м.
    Битрейт : 4888 Кбит/сек
    Ширина : 1184 пикселя
    Высота : 720 пикселей
    Соотношение сторон : 16: 10
    Режим частоты кадров : Постоянный
    Частота кадров : 24, 000 кадра/сек
    Цветовое пространство : YUV
    Субдискретизация насыщенности : 4: 2: 0
    Битовая глубина : 8 бит
    Тип развёртки : Прогрессивная
    Бит/(Пиксели*Кадры) : 0.239
    Размер потока : 4, 09 Гбайт (86%)
    Заголовок : Release for HDCLUB
    Библиотека кодирования : x264 core 65 r1077M e46f648
    Настройки программы : cabac=1/ref=5/deblock=1: 0: 0/analyse=0x3: 0x2/me=umh/subme=7/psy_rd=1.0: 0.0/mixed_ref=1/me_range=16/chroma_me=1/trellis=1/8x8dct=1/cqm=0/deadzone=21, 11/chroma_qp_offset=-2/threads=6/nr=0/decimate=1/mbaff=0/bframes=3/b_pyramid=1/b_adapt=1/b_bias=0/direct=1/wpredb=1/keyint=250/keyint_min=25/scenecut=40(pre)/rc=2pass/bitrate=4888/ratetol=1.0/qcomp=0.60/qpmin=10/qpmax=51/qpstep=4/cplxblur=20.0/qblur=0.5/ip_ratio=1.40/pb_ratio=1.30/aq=1: 1.00
    Язык : French
    Default : Да
    Forced : Нет
    Аудио #1
    Идентификатор : 2
    Формат : AC-3
    Формат/Информация : Audio Coding 3
    Коммерческое название : Dolby Digital
    Идентификатор кодека : A_AC3
    Продолжительность : 2 ч. 2 м.
    Вид битрейта : Постоянный
    Битрейт : 448 Кбит/сек
    Каналы : 6 каналов
    ChannelLayout : L R C LFE Ls Rs
    Частота : 48, 0 КГц
    Частота кадров : 31, 250 кадров/сек (1536 SPF)
    Метод сжатия : С потерями
    Размер потока : 392 Мбайт (8%)
    Заголовок : AC3 5.1 448k Dubl
    Язык : Russian
    ServiceKind/String : Complete Main
    Default : Да
    Forced : Нет
    Аудио #2
    Идентификатор : 3
    Формат : AC-3
    Формат/Информация : Audio Coding 3
    Коммерческое название : Dolby Digital
    Идентификатор кодека : A_AC3
    Продолжительность : 2 ч. 2 м.
    Вид битрейта : Постоянный
    Битрейт : 224 Кбит/сек
    Каналы : 2 канала
    ChannelLayout : L R
    Частота : 48, 0 КГц
    Частота кадров : 31, 250 кадров/сек (1536 SPF)
    Метод сжатия : С потерями
    Размер потока : 196 Мбайт (4%)
    Заголовок : French AC3 2.0
    Язык : French
    ServiceKind/String : Complete Main
    Default : Нет
    Forced : Нет


    Онлайн видео Бассейн



    Бассейн / La piscine (1969) [720p] BDRip торрент скачать бесплатно
    Рейтинг →
     (голосов: 1, оценка 3/5, голосовать можно 1 раз )

    Другие торренты по теме:

  • Бассейн / La piscine (1969) BDRip [H.264] скачать через торрент бесплатно
  • Бассейн / La piscine (1969) BDRip [H.264 / 1080p] [PR]


    • Комментарии (0):

      Информация

      Информация

        Посетители, находящиеся в группе Гости, не могут оставлять комментарии в данной новости.

        ↓ Меню




        ↓ Опрос

        Вы добавили сайт в закладки?
        Да
        Нет


        Популярное