ВАЖНО! Сайт скоро заблокируют! Подписывайся на наш канал в Telegram https://t.me/torrentok и получи доступ к торрентам без ограничений!
.
Авторизация | Регистрация
bitok.xyz
Торрент скачать бесплатно Фильмы торрент скачать Район №9 / District 9 (2009) UHD WEB-DL [H.265 / 2160p-LQ] [4K, HDR, 10-bit] торрент скачать бесплатно


    Район №9 / District 9 (2009) UHD WEB-DL [H.265 / 2160p-LQ] [4K, HDR, 10-bit] торрент скачать бесплатно

    Дата: 2-11-2019, 11:36 | .torrent скачали: 3

    Район №9 / District 9 (2009) UHD WEB-DL [H.265 / 2160p-LQ] [4K, HDR, 10-bit]Производство: ЮАР, США, Новая Зеландия, Канада/Key Creatives, QED International, WingNut Films, Wintergreen Productions
    Жанр: Фантастика, Триллер, Боевик, Драма
    Режиссер: Нил Бломкамп

    Актеры
    Шарлто Копли, Джейсон Коуп, Натали Болтт, Сильвен Страйк, Элизабет Мкандави, Джон Самнер, Уильям Аллен Янг, Грег Мелвилл-Смит, Ник Блейк, Морена Буса Сесатса

    Описание

    Более 20 лет назад инопланетяне установили первый контакт с Землей. Люди были готовы ко всему — от враждебного вторжения до невероятного технологического прорыва. Ни того, ни другого не произошло. Пришельцы оказались беженцами со своей собственной планеты, и пока мировое сообщество решало, что с ними делать дальше, для них был организован временный лагерь в южноафриканском Районе №9.

    Возраст: 16+ (зрителям, достигшим 16 лет)
    Рейтинг MPAA: R (лицам до 17 лет обязательно присутствие взрослого)
    Релиз от: NAHOM
    Продолжительность: 01: 52: 30
    Качество видео: UHD WEB-DL
    Перевод: Дублированный, Одноголосый закадровый x4
    Субтитры: русские (форсированные, полные), английские (форсированные на инопланетную речь (hardsub), полные)
    Видео: HEVC/H.265, 3840x2072, ~9869 Kbps
    Аудио 1: AC3, 6 ch, 384 Kbps (английский)
    Аудио 2: AC3, 6 ch, 448 Kbps (русский, дубляж)
    Аудио 3: AC3, 6 ch, 448 Kbps (русский, одноголосый - А. Гаврилов)
    Аудио 4: AC3, 6 ch, 448 Kbps (русский, одноголосый - В. Горчаков)
    Аудио 5: AC3, 6 ch, 448 Kbps (русский, одноголосый - М. Яроцкий)
    Аудио 6: AC3, 6 ch, 448 Kbps (русский, одноголосый - Ю. Сербин)
    Общее
    Уникальный идентификатор : 198225623808067915012881048986468654085 (0x9520DDD0904FA4F1A8CC31B24DBE9C05)
    Полное имя : E: VideoРайон №9 (District 9).mkv
    Формат : Matroska
    Версия формата : Version 4/Version 2
    Размер файла : 9, 80 Гбайт
    Продолжительность : 1 ч. 52 м.
    Общий поток : 12, 5 Мбит/сек
    Название фильма : Район №9/District 9
    Кодирование произвёл : NAHOM
    Дата выпуска : 2009
    Дата кодирования : UTC 2019-10-29 04: 56: 26
    Программа кодирования : mkvmerge v34.0.0 (\'Sight and Seen\') 64-bit
    Библиотека кодирования : libebml v1.3.7 + libmatroska v1.5.0
    Обложка : Yes
    Attachments : cover.jpg
    Released by : Buba5473 for NNM-Club
    Видео
    Идентификатор : 1
    Формат : HEVC
    Формат/Информация : High Efficiency Video Coding
    Профиль формата : Main10@L5.1@High
    Идентификатор кодека : V_MPEGH/ISO/HEVC
    Продолжительность : 1 ч. 52 м.
    Битрейт : 9869 Кбит/сек
    Ширина : 3840 пикселей
    Высота : 2072 пикселя
    Соотношение сторон : 1, 85: 1
    Режим частоты кадров : Постоянный
    Частота кадров : 23, 976 (24000/1001) кадра/сек
    Цветовое пространство : YUV
    Субдискретизация насыщенности : 4: 2: 0
    Битовая глубина : 10 бит
    Бит/(Пиксели*Кадры) : 0.052
    Размер потока : 7, 74 Гбайт (79%)
    Заголовок : District 9 2009.4K.HDR.2160p.WEBDL Ita Eng x265-NAHOM
    Язык : English
    Default : Да
    Forced : Нет
    Color range : Limited
    Основные цвета : BT.2020
    Характеристики трансфера : SMPTE ST 2084
    Коэффициенты матрицы : BT.2020 non-constant
    Mastering display color primaries : R: x=0.708000 y=0.292000, G: x=0.170000 y=0.797000, B: x=0.131000 y=0.046000, White point: x=0.312700 y=0.329000
    Mastering display luminance : min: 0.0001 cd/m2, max: 1000.0000 cd/m2
    Аудио #1
    Идентификатор : 2
    Формат : AC-3
    Формат/Информация : Audio Coding 3
    Параметр Endianness формата : Big
    Идентификатор кодека : A_AC3
    Продолжительность : 1 ч. 52 м.
    Вид битрейта : Постоянный
    Битрейт : 384 Кбит/сек
    Каналы : 6 каналов
    Расположение каналов : Front: L C R, Side: L R, LFE
    Частота : 48, 0 КГц
    Частота кадров : 31, 250 кадров/сек (1536 SPF)
    Битовая глубина : 16 бит
    Метод сжатия : С потерями
    Размер потока : 308 Мбайт (3%)
    Язык : English
    Service kind : Complete Main
    Default : Нет
    Forced : Нет
    Аудио #2
    Идентификатор : 4
    Формат : AC-3
    Формат/Информация : Audio Coding 3
    Параметр Endianness формата : Big
    Идентификатор кодека : A_AC3
    Продолжительность : 1 ч. 52 м.
    Вид битрейта : Постоянный
    Битрейт : 448 Кбит/сек
    Каналы : 6 каналов
    Расположение каналов : Front: L C R, Side: L R, LFE
    Частота : 48, 0 КГц
    Частота кадров : 31, 250 кадров/сек (1536 SPF)
    Битовая глубина : 16 бит
    Метод сжатия : С потерями
    Размер потока : 360 Мбайт (4%)
    Заголовок : Перевод: Дублированный
    Язык : Russian
    Service kind : Complete Main
    Default : Да
    Forced : Нет
    Аудио #3
    Идентификатор : 5
    Формат : AC-3
    Формат/Информация : Audio Coding 3
    Параметр Endianness формата : Big
    Идентификатор кодека : A_AC3
    Продолжительность : 1 ч. 52 м.
    Вид битрейта : Постоянный
    Битрейт : 448 Кбит/сек
    Каналы : 6 каналов
    Расположение каналов : Front: L C R, Side: L R, LFE
    Частота : 48, 0 КГц
    Частота кадров : 31, 250 кадров/сек (1536 SPF)
    Битовая глубина : 16 бит
    Метод сжатия : С потерями
    Размер потока : 360 Мбайт (4%)
    Заголовок : Перевод: Авторский одноголосый Андрей Гаврилов
    Язык : Russian
    Service kind : Complete Main
    Default : Нет
    Forced : Нет
    Аудио #4
    Идентификатор : 6
    Формат : AC-3
    Формат/Информация : Audio Coding 3
    Параметр Endianness формата : Big
    Идентификатор кодека : A_AC3
    Продолжительность : 1 ч. 52 м.
    Вид битрейта : Постоянный
    Битрейт : 448 Кбит/сек
    Каналы : 6 каналов
    Расположение каналов : Front: L C R, Side: L R, LFE
    Частота : 48, 0 КГц
    Частота кадров : 31, 250 кадров/сек (1536 SPF)
    Битовая глубина : 16 бит
    Метод сжатия : С потерями
    Размер потока : 360 Мбайт (4%)
    Заголовок : Перевод: Авторский одноголосый Василий Горчаков
    Язык : Russian
    Service kind : Complete Main
    Default : Нет
    Forced : Нет
    Аудио #5
    Идентификатор : 7
    Формат : AC-3
    Формат/Информация : Audio Coding 3
    Параметр Endianness формата : Big
    Идентификатор кодека : A_AC3
    Продолжительность : 1 ч. 52 м.
    Вид битрейта : Постоянный
    Битрейт : 448 Кбит/сек
    Каналы : 6 каналов
    Расположение каналов : Front: L C R, Side: L R, LFE
    Частота : 48, 0 КГц
    Частота кадров : 31, 250 кадров/сек (1536 SPF)
    Битовая глубина : 16 бит
    Метод сжатия : С потерями
    Размер потока : 360 Мбайт (4%)
    Заголовок : Перевод: Авторский одноголосый Михаил Яроцкий
    Язык : Russian
    Service kind : Complete Main
    Default : Нет
    Forced : Нет
    Аудио #6
    Идентификатор : 8
    Формат : AC-3
    Формат/Информация : Audio Coding 3
    Параметр Endianness формата : Big
    Идентификатор кодека : A_AC3
    Продолжительность : 1 ч. 52 м.
    Вид битрейта : Постоянный
    Битрейт : 448 Кбит/сек
    Каналы : 6 каналов
    Расположение каналов : Front: L C R, Side: L R, LFE
    Частота : 48, 0 КГц
    Частота кадров : 31, 250 кадров/сек (1536 SPF)
    Битовая глубина : 16 бит
    Метод сжатия : С потерями
    Размер потока : 360 Мбайт (4%)
    Заголовок : Перевод: Авторский одноголосый Юрий Сербин
    Язык : Russian
    Service kind : Complete Main
    Default : Нет
    Forced : Нет
    Текст #1
    Идентификатор : 3
    Формат : UTF-8
    Идентификатор кодека : S_TEXT/UTF8
    Идентификатор кодека/Информация : UTF-8 Plain Text
    Продолжительность : 1 ч. 43 м.
    Битрейт : 69 бит/сек
    Count of elements : 1431
    Размер потока : 53, 0 Кбайт (0%)
    Язык : English
    Default : Нет
    Forced : Нет
    Текст #2
    Идентификатор : 9
    Формат : UTF-8
    Идентификатор кодека : S_TEXT/UTF8
    Идентификатор кодека/Информация : UTF-8 Plain Text
    Продолжительность : 1 ч. 42 м.
    Битрейт : 18 бит/сек
    Count of elements : 297
    Размер потока : 14, 2 Кбайт (0%)
    Заголовок : Фосированные
    Язык : Russian
    Default : Да
    Forced : Нет
    Текст #3
    Идентификатор : 10
    Формат : UTF-8
    Идентификатор кодека : S_TEXT/UTF8
    Идентификатор кодека/Информация : UTF-8 Plain Text
    Продолжительность : 1 ч. 43 м.
    Битрейт : 92 бит/сек
    Count of elements : 1239
    Размер потока : 70, 3 Кбайт (0%)
    Заголовок : Полные
    Язык : Russian
    Default : Нет
    Forced : Нет
    Текст #4
    Идентификатор : 11
    Формат : UTF-8
    Идентификатор кодека : S_TEXT/UTF8
    Идентификатор кодека/Информация : UTF-8 Plain Text
    Продолжительность : 1 ч. 42 м.
    Битрейт : 8 бит/сек
    Count of elements : 79
    Размер потока : 6, 30 Кбайт (0%)
    Заголовок : Форсированные, KyberPunk
    Язык : Russian
    Default : Нет
    Forced : Нет
    XMP
    Xmp.video.FileName : E: VideoРайон №9 (District 9).mkv
    Xmp.video.FileSize : -9.53674e-007
    Xmp.video.MimeType : video/matroska
    Xmp.video.EBMLVersion : 1
    Xmp.video.EBMLReadVersion : 1
    Xmp.video.DocType : matroska
    Xmp.video.DocTypeVersion : 4
    Xmp.video.DocTypeReadVersion : 2
    Xmp.video.TimecodeScale : 0.001
    Xmp.video.MuxingApp : libebml v1.3.7 + libmatroska v1.5.0
    Xmp.video.WritingApp : mkvmerge v34.0.0 (\'Sight and Seen\') 64-bit
    Xmp.video.Duration : 6750240
    Xmp.video.DateUTC : 594017786
    Xmp.video.Title : Район №9/District 9
    Xmp.video.TotalStream : 166
    Xmp.video.TrackLacing : No
    Xmp.video.Codec : V_MPEGH/ISO/HEVC
    Xmp.video.FrameRate : 23.976
    Xmp.video.TrackName : Форсированные, KyberPunk
    Xmp.video.Width : 3840
    Xmp.video.Height : 2072
    Xmp.audio.DefaultOn : No
    Xmp.audio.Compressor : A_AC3
    Xmp.audio.DefaultDuration : 32000
    Xmp.audio.SampleRate : 48000
    Xmp.video.SubTDefaultOn : No
    Xmp.video.SubTTrackLacing : No
    Xmp.video.SubTCodec : S_TEXT/UTF8
    Xmp.audio.TrackLang : rus
    Xmp.video.SubTLang : rus
    Xmp.video.AttachFileName : cover.jpg
    Xmp.video.AttachFileMIME : image/jpeg
    Xmp.video.AttachFileUID : 1092757023831598543
    Xmp.video.AttachFileDesc : BD Cover
    Xmp.video.AspectRatio : 1.8
    H.265/HEVC (High Efficiency Video Coding) - это новый стандарт кодирования видео.
    *Рипы в фомате HEVC, в настоящее время поддерживается не всеми аппаратными проигрывателями.
    *Для корректного воспроизведения может потребоваться обновление ПО.
    *Стандарт H.265/HEVC является логическим продолжением стандарта H.264/AVC (Advanced Video Coding), и характеризуется более эффективными алгоритмами сжатия, а также поддержкой высокого разрешения вплоть до 8K UHD (8192x4320). Первая версия стандарта H.265 была опубликована в начале 2013 года.
    Любителям решения из коробки - установить последнюю версию на выбор:
    Media Player Classic - Black Edition (MPC-BE)
    VLC media player
    Daum Pot Player
    GOM Media Player
    Любителям WMP и других плееров, использующих по умолчанию для воспроизведения системные кодеки+сплитеры - установить K-Lite Codec Pack версии 10.1.0 и выше.
    Любимые плееры, не использующии по умолчанию для воспроизведения системные кодеки+сплитеры, нужно перенастроить на использование оных.Просмотр 4K HDR-контента на ПК

    Скриншоты для ознакомления




    Все одноименные релизы в Клубе
    Время раздачи: с 11: 00 до 21: 00 по Новосибирску (UTC +7) (до появления первых 3-5 скачавших)

    Онлайн видео Район №9



    Район №9 / District 9 (2009) UHD WEB-DL [H.265 / 2160p-LQ] [4K, HDR, 10-bit] торрент скачать бесплатно
    Рейтинг →
     (голосов: 1, оценка 3/5, голосовать можно 1 раз )

    Другие торренты по теме:

  • Clinton Shorter - Район №9 / District 9 (2009) [AAC|WEB-DL|256 Kbps]<Score>
  • Район №9 / District 9 (2009) BDRip [H.264 / 1080p-LQ]
  • Район С-11 / District C-11 (2017) WEB-DLRip [MVO] [AD]
  • Район №9 / District 9 (2009) HDRip [H.264] [MP4|1280x692]
  • Район №9 / District 9 (2009) HDRip [H.264] [MP4|1920x1038]
  • Район №9 / District 9 (2009) BDRip
  • Район №9 / District 9 (2009) BDRip [H.265 / 1080p] [10-bit]


    • Комментарии (0):

      Информация

      Информация

        Посетители, находящиеся в группе Гости, не могут оставлять комментарии в данной новости.

        ↓ Меню




        Популярное