.
Авторизация | Регистрация
bitok.xyz
» » Железный человек / Iron Man (2008) WEBRip [H.264 / 1080p-LQ] [Open Matte] торрент скачать бесплатно


    Железный человек / Iron Man (2008) WEBRip [H.264 / 1080p-LQ] [Open Matte] торрент скачать бесплатно

    Дата: 12-11-2019, 05:00 | .torrent скачали: 2

    Железный человек / Iron Man (2008) WEBRip [H.264 / 1080p-LQ] [Open Matte]Производство: США, Канада/Paramount Pictures, Marvel Enterprises, Marvel Studios
    Жанр: фантастика, боевик, приключения
    Режиссер: Джон Фавро

    Актеры
    Роберт Дауни мл., Джефф Бриджес, Гвинет Пэлтроу, Терренс Ховард, Лесли Бибб, Шон Тоуб, Фаран Таир, Кларк Грегг, Джон Фавро, Саид Бадрия

    Описание

    Миллиардер-изобретатель Тони Старк попадает в плен к Афганским террористам, которые пытаются заставить его создать оружие массового поражения. В тайне от своих захватчиков Старк конструирует высокотехнологичную киберброню, которая помогает ему сбежать. Однако по возвращении в США он узнаёт, что в совете директоров его фирмы плетётся заговор, чреватый страшными последствиями. Используя своё последнее изобретение, Старк пытается решить проблемы своей компании радикально…

    Возраст: 12+ (зрителям, достигшим 12 лет)
    Рейтинг MPAA: PG-13 (детям до 13 лет просмотр нежелателен)
    Продолжительность: 02: 06: 10
    Качество видео: WEBRip
    Перевод: Дублированный
    Субтитры: русские, английские
    Видео: AVC/H.264, 1920x1080, ~6520 kbps
    Аудио 1: AC3, 6 ch, 640 kbps, Русский (DUB)
    Аудио 2: AC3, 6 ch, 640 kbps, Английский
    Общее
    Уникальный идентификатор : 210470022756683949587285042750476928583 (0x9E570D4AC79380FAB4624CC954664647)
    Полное имя : D: FILMSZALIVIron.Man.2008.WEB-DL.1080p.Open.Matte.mkv
    Формат : Matroska
    Версия формата : Version 4
    Размер файла : 6, 88 Гбайт
    Продолжительность : 2 ч. 6 м.
    Режим общего битрейта : Переменный
    Общий поток : 7803 Кбит/сек
    Название фильма : • Rip • Laughing Man •
    Дата кодирования : UTC 2019-11-11 04: 21: 16
    Программа кодирования : mkvmerge v8.2.0 (\'World of Adventure\') 64bit
    Библиотека кодирования : libebml v1.3.1 + libmatroska v1.4.2
    Обложка : Yes
    Attachments : cover.jpg/Avengers.jpg
    Видео
    Идентификатор : 1
    Формат : AVC
    Формат/Информация : Advanced Video Codec
    Профиль формата : High@L4.1
    Настройки формата : CABAC/3 Ref Frames
    Параметр CABAC формата : Да
    Параметр RefFrames формата : 3 кадра
    Идентификатор кодека : V_MPEG4/ISO/AVC
    Продолжительность : 2 ч. 6 м.
    Вид битрейта : Переменный
    Битрейт : 6520 Кбит/сек
    Максимальный битрейт : 40, 0 Мбит/сек
    Ширина : 1920 пикселей
    Высота : 1080 пикселей
    Соотношение сторон : 16: 9
    Режим частоты кадров : Постоянный
    Частота кадров : 23, 976 (24000/1001) кадра/сек
    Цветовое пространство : YUV
    Субдискретизация насыщенности : 4: 2: 0
    Битовая глубина : 8 бит
    Тип развёртки : Прогрессивная
    Бит/(Пиксели*Кадры) : 0.131
    Размер потока : 5, 74 Гбайт (84%)
    Заголовок : Iron Man
    Библиотека кодирования : x264 core 157 r2935 545de2f
    Настройки программы : cabac=1/ref=4/deblock=1: -1: -1/analyse=0x3: 0x133/me=umh/subme=7/psy=1/psy_rd=1.00: 0.15/mixed_ref=1/me_range=20/chroma_me=1/trellis=1/8x8dct=1/cqm=0/deadzone=21, 11/fast_pskip=1/chroma_qp_offset=-3/threads=12/lookahead_threads=2/sliced_threads=0/slices=4/nr=0/decimate=1/interlaced=0/bluray_compat=1/constrained_intra=0/bframes=3/b_pyramid=1/b_adapt=1/b_bias=0/direct=1/weightb=1/open_gop=1/weightp=1/keyint=24/keyint_min=1/scenecut=40/intra_refresh=0/rc_lookahead=24/rc=2pass/mbtree=1/bitrate=6520/ratetol=1.0/qcomp=0.60/qpmin=0/qpmax=69/qpstep=4/cplxblur=20.0/qblur=0.5/vbv_maxrate=40000/vbv_bufsize=30000/nal_hrd=vbr/filler=0/ip_ratio=1.40/aq=1: 1.00
    Язык : English
    Default : Да
    Forced : Да
    Цветовой диапазон : Limited
    Основные цвета : BT.709
    Характеристики трансфера : BT.709
    Коэффициенты матрицы : BT.709
    Аудио #1
    Идентификатор : 2
    Формат : AC-3
    Формат/Информация : Audio Coding 3
    Коммерческое название : Dolby Digital
    Идентификатор кодека : A_AC3
    Продолжительность : 2 ч. 6 м.
    Вид битрейта : Постоянный
    Битрейт : 640 Кбит/сек
    Каналы : 6 каналов
    ChannelLayout : L R C LFE Ls Rs
    Частота : 48, 0 КГц
    Частота кадров : 31, 250 кадров/сек (1536 SPF)
    Метод сжатия : С потерями
    Размер потока : 577 Мбайт (8%)
    Заголовок : Дублированный
    Язык : Russian
    ServiceKind/String : Complete Main
    Default : Да
    Forced : Да
    Аудио #2
    Идентификатор : 3
    Формат : AC-3
    Формат/Информация : Audio Coding 3
    Коммерческое название : Dolby Digital
    Идентификатор кодека : A_AC3
    Продолжительность : 2 ч. 6 м.
    Вид битрейта : Постоянный
    Битрейт : 640 Кбит/сек
    Каналы : 6 каналов
    ChannelLayout : L R C LFE Ls Rs
    Частота : 48, 0 КГц
    Частота кадров : 31, 250 кадров/сек (1536 SPF)
    Метод сжатия : С потерями
    Размер потока : 577 Мбайт (8%)
    Заголовок : Английский
    Язык : English
    ServiceKind/String : Complete Main
    Default : Нет
    Forced : Нет
    Текст #1
    Идентификатор : 4
    Формат : UTF-8
    Идентификатор кодека : S_TEXT/UTF8
    Идентификатор кодека/Информация : UTF-8 Plain Text
    Продолжительность : 1 ч. 3 м.
    Битрейт : 2 бит/сек
    ElementCount : 37
    Размер потока : 1, 13 Кбайт (0%)
    Заголовок : Forsed
    Язык : Russian
    Default : Да
    Forced : Да
    Текст #2
    Идентификатор : 5
    Формат : ASS
    Идентификатор кодека : S_TEXT/ASS
    Идентификатор кодека/Информация : Advanced Sub Station Alpha
    Продолжительность : 2 ч. 4 м.
    Битрейт : 119 бит/сек
    ElementCount : 1347
    Метод сжатия : Без потерь
    Размер потока : 109 Кбайт (0%)
    Заголовок : Russian
    Язык : Russian
    Default : Нет
    Forced : Нет
    Текст #3
    Идентификатор : 6
    Формат : UTF-8
    Идентификатор кодека : S_TEXT/UTF8
    Идентификатор кодека/Информация : UTF-8 Plain Text
    Продолжительность : 2 ч. 4 м.
    Битрейт : 59 бит/сек
    ElementCount : 1339
    Размер потока : 54, 5 Кбайт (0%)
    Заголовок : English
    Язык : English
    Default : Нет
    Forced : Нет
    Меню
    00: 00: 00.000 : en: Start/Surpise Attack
    00: 04: 20.000 : en: Las Vegas
    00: 09: 06.350 : en: The Morning After/Meet Pepper Potts
    00: 12: 26.000 : en: Jet-Set Babysitter
    00: 14: 17.600 : en: The Presentation: That\'s How Dad Did It
    00: 18: 00.579 : en: Survived: Electric Heart
    00: 26: 03.000 : en: The Plans: Our Ticket Out
    00: 32: 07.000 : en: The Escape
    00: 41: 00.000 : en: The Rescue
    00: 42: 00.000 : en: The Return
    00: 52: 38.488 : en: The Hanger: Old Friends
    00: 54: 54.500 : en: The Aftermath: Picking Up The Pieces
    00: 59: 24.644 : en: Test Flight
    01: 07: 32.423 : en: A Night On The Town
    01: 13: 36.300 : en: Goalmari: Righting Wrongs
    01: 18: 31.206 : en: Unidentified Bogie
    01: 24: 40.575 : en: The Gift Of Iron Soldiers
    01: 35: 00.111 : en: Arc Reaction
    01: 35: 46.100 : en: The Heartless Man
    01: 43: 04.000 : en: Iron Man vs. Monster Man
    01: 53: 31.471 : en: Official Statement
    01: 57: 18.000 : en: End Credits

    Скриншоты для ознакомления



    Все одноименные релизы в Клубе
    Время раздачи: c 5 до 19 мск (до появления первых 3-5 скачавших)

    Онлайн видео Железный человек



    Железный человек/Iron Man (2008) WEBRip [H.264/1080p-LQ] [Open Matte]
    Рейтинг →
     (голосов: 1, оценка 4/5, голосовать можно 1 раз )

    Другие торренты по теме:

  • Железный человек 3 / Iron Man 3 (2013) BDRemux 3D [1080p] [3D / 2D]
  • Железный человек 007 / Iron man 007 (1976) VHSRip
  • Несокрушимый Железный человек / The Invincible Iron Man (2007) BDRip [720p] скачать через торрент бесплатно
  • Несокрушимый Железный человек / The Invincible Iron Man (2007) BDRip скачать через торрент бесплатно
  • Железный человек и Капитан Америка: Союз героев / Iron Man and Captain America: Heroes United (2014) HDRip [H.264 / 1080p-LQ] скачать через торрент бесплатно
  • Железный человек и Халк: Союз героев / Iron Man & Hulk: Heroes United (2013) BDRip [H.264 / 1080p] скачать через торрент бесплатно
  • Железный человек / Iron Man (2008-2013) BDRip [H.264 / 720p-LQ] [Трилогия] скачать через торрент бесплатно
  • Железный Человек 3 / Iron Man 3 (2013) BDRip 3D [H.264 / 1080p] [Вертикальная анаморфная стереопара] [hand made 16:9] скачать через торрент бесплатно


    • Комментарии (0):

      Информация

      Информация

        Посетители, находящиеся в группе Гости, не могут оставлять комментарии в данной новости.

        ↓ Меню




        ↓ Опрос

        Вы добавили сайт в закладки?
        Да
        Нет


        Популярное