.
Авторизация | Регистрация
bitok.xyz
Торрент скачать бесплатно Фильмы торрент скачать Джокер / Joker (2019) WEBRip [H.264 / 720p-LQ] [AVO] торрент скачать бесплатно


    Джокер / Joker (2019) WEBRip [H.264 / 720p-LQ] [AVO] торрент скачать бесплатно

    Дата: 13-11-2019, 05:00 | .torrent скачали: 7

    Джокер / Joker (2019) WEBRip [H.264 / 720p-LQ] [AVO]Производство: США, Канада, BRON Studios, Creative Wealth Media Finance, DC Comics
    Жанр: Триллер, драма, криминал
    Режиссер: Тодд Филлипс

    Актеры
    Хоакин Феникс, Роберт Де Ниро, Зази Битц, Фрэнсис Конрой, Бретт Каллен, Шей Уигэм, Билл Кэмп, Гленн Флешлер, Ли Гилл, Джош Пэйс

    Описание

    Готэм, начало 1980-х годов. Комик Артур Флек живет с больной матерью, которая с детства учит его ходить с улыбкой. Пытаясь нести в мир хорошее и дарить людям радость, Артур сталкивается с человеческой жестокостью и постепенно приходит к выводу, что этот мир получит от него не добрую улыбку, а ухмылку злодея Джокера.

    Возраст: 18+ (зрителям, достигшим 18 лет. запрещено для детей)
    Рейтинг MPAA: R (лицам до 17 лет обязательно присутствие взрослого)
    Дата мировой премьеры: 31 августа 2019
    Дата российской премьеры: 3 октября 2019
    Релиз от: NNMClub
    Продолжительность: 01: 55: 32
    Качество видео: WEBRip (batonchik )
    Перевод: Авторский одноголосый - А.Важенин (BadBajo)
    Субтитры: Корейские хардсабы
    Видео: AVC/H.264, 1280х696, ~2248 Kbps
    Аудио: AC3, 2 ch, 448 Kbps l Русский (BadBajo)--Information 12.11.2019 17: 34: 53 Standard error stream
    ---Information 12.11.2019 17: 35: 04 y4m info: 1280x696p 1: 1 @ 30/1 fps (cfr)
    ---Information 12.11.2019 17: 35: 04 x264 info: using SAR=1/1
    ---Information 12.11.2019 17: 35: 04 x264 info: using cpu capabilities: MMX2 SSE2Fast SSSE3 SSE4.2 AVX
    ---Information 12.11.2019 17: 35: 04 x264 info: profile High, level 4.1, 4: 2: 0, 8-bit
    ---Information 12.11.2019 21: 05: 04 x264 info: frame I: 1259 Avg QP: 17.86 size: 63239
    ---Information 12.11.2019 21: 05: 04 x264 info: frame P: 63897 Avg QP: 19.34 size: 19708
    ---Information 12.11.2019 21: 05: 04 x264 info: frame B: 142818 Avg QP: 20.32 size: 4264

    ---Information 12.11.2019 21: 05: 04 x264 info: consecutive B-frames: 8.2% 4.2% 10.9% 50.0% 17.9% 6.0% 1.5% 0.5% 0.6% 0.1% 0.2%
    General
    Complete name : Джокер_Joker (2019) WEBRip.720p.LQ.NNMClub.mkv
    Format : Matroska
    Format version : Version 4
    File size : 2.18 GiB
    Duration : 1 h 55 min
    Overall bit rate : 2 698 kb/s
    Movie name : Джокер_Joker (2019) WEBRip.720p.LQ.NNMClub
    Encoded date : UTC 2019-11-12 18: 56: 17
    Writing application : mkvmerge v36.0.0 (\'Is That Jazz?\') 64-bit
    Writing library : libebml v1.3.9 + libmatroska v1.5.2
    Video
    ID : 1
    Format : AVC
    Format/Info : Advanced Video Codec
    Format profile : High@L4.1
    Format settings : CABAC/9 Ref Frames
    Format settings, CABAC : Yes
    Format settings, Reference frames : 9 frames
    Codec ID : V_MPEG4/ISO/AVC
    Duration : 1 h 55 min
    Bit rate : 2 248 kb/s
    Width : 1 280 pixels
    Height : 696 pixels
    Display aspect ratio : 1.85: 1
    Frame rate mode : Constant
    Frame rate : 30.000 FPS
    Color space : YUV
    Chroma subsampling : 4: 2: 0
    Bit depth : 8 bits
    Scan type : Progressive
    Bits/(Pixel*Frame) : 0.084
    Stream size : 1.81 GiB (83%)
    Title : Джокер_Joker (2019) WEBRip.720p.LQ.NNMClub
    Writing library : x264 core 158 r2984 3759fcb
    Encoding settings : cabac=1/ref=9/deblock=1: -3: -3/analyse=0x3: 0x133/me=umh/subme=10/psy=1/psy_rd=1.00: 0.25/mixed_ref=1/me_range=24/chroma_me=1/trellis=2/8x8dct=1/cqm=0/deadzone=6, 6/fast_pskip=0/chroma_qp_offset=-4/threads=12/lookahead_threads=3/sliced_threads=0/nr=0/decimate=0/interlaced=0/bluray_compat=0/constrained_intra=0/bframes=10/b_pyramid=2/b_adapt=2/b_bias=0/direct=1/weightb=1/open_gop=0/weightp=2/keyint=240/keyint_min=23/scenecut=40/intra_refresh=0/rc_lookahead=40/rc=2pass/mbtree=1/bitrate=2248/ratetol=1.0/qcomp=0.60/qpmin=0/qpmax=69/qpstep=4/cplxblur=20.0/qblur=0.5/vbv_maxrate=50000/vbv_bufsize=62500/nal_hrd=none/filler=0/ip_ratio=1.10/aq=3: 0.90
    Language : English
    Default : Yes
    Forced : No
    Audio
    ID : 2
    Format : AC-3
    Format/Info : Audio Coding 3
    Commercial name : Dolby Digital
    Codec ID : A_AC3
    Duration : 1 h 55 min
    Bit rate mode : Constant
    Bit rate : 448 kb/s
    Channel(s) : 2 channels
    Channel layout : L R
    Sampling rate : 48.0 kHz
    Frame rate : 31.250 FPS (1536 SPF)
    Compression mode : Lossy
    Stream size : 370 MiB (17%)
    Title : Авторский одноголосый - А.Важенин (BadBajo)
    Language : Russian
    Service kind : Complete Main
    Default : Yes
    Forced : No

    Скриншоты для ознакомления



    Все одноименные релизы в Клубе
    Время раздачи: 24/7 (до появления первых 3-5 скачавших)

    Онлайн видео Джокер



    Джокер / Joker (2019) WEBRip [H.264 / 720p-LQ] [AVO] торрент скачать бесплатно
    Рейтинг →
     (голосов: 1, оценка 5/5, голосовать можно 1 раз )

    Другие торренты по теме:

  • Джокер / Joker (2019) TS [AD]
  • Джокер / Joker (2012) DVDRip
  • Джокер / Joker (2019) WEBRip [H.264 / 1080p-LQ] [AVO]
  • Джокер / Joker (2019) WEBRip [H.264 / 1080p] [EN / KOR Sub]
  • Джокер / Joker (2019) WEBRip [H.264 / 1080p-LQ] [Line, AD]
  • Джокер / Joker (2019) WEBRip [H.264 / 720p-LQ] [MVO]
  • Джокер / Joker (2019) WEBRip [H.264 / 1080p] [PR]
  • Джокер / Joker (2019) WEB-DL [H.264 / 1080p-LQ] [Line]


    • Комментарии (0):

      Информация

      Информация

        Посетители, находящиеся в группе Гости, не могут оставлять комментарии в данной новости.

        ↓ Меню




        ↓ Опрос

        Вы добавили сайт в закладки?
        Да
        Нет


        Популярное