.
Авторизация | Регистрация
bitok.xyz
Торрент скачать бесплатно Фильмы торрент скачать Джокер / Joker (2019) WEBRip [H.264 / 1080p-LQ] [Line, AD] торрент скачать бесплатно


    Джокер / Joker (2019) WEBRip [H.264 / 1080p-LQ] [Line, AD] торрент скачать бесплатно

    Дата: 14-11-2019, 05:00 | .torrent скачали: 7

    Джокер / Joker (2019) WEBRip [H.264 / 1080p-LQ] [Line, AD]Производство: США, Канада, BRON Studios, Creative Wealth Media Finance, DC Comics
    Жанр: Триллер, драма, криминал
    Режиссер: Тодд Филлипс

    Актеры
    Хоакин Феникс, Роберт Де Ниро, Зази Битц, Фрэнсис Конрой, Бретт Каллен, Шей Уигэм, Билл Кэмп, Гленн Флешлер, Ли Гилл, Джош Пэйс

    Описание

    Готэм, начало 1980-х годов. Комик Артур Флек живет с больной матерью, которая с детства учит его ходить с улыбкой. Пытаясь нести в мир хорошее и дарить людям радость, Артур сталкивается с человеческой жестокостью и постепенно приходит к выводу, что этот мир получит от него не добрую улыбку, а ухмылку злодея Джокера.

    Возраст: 18+ (зрителям, достигшим 18 лет. запрещено для детей)
    Рейтинг MPAA: R (лицам до 17 лет обязательно присутствие взрослого)
    Дата мировой премьеры: 31 августа 2019
    Дата российской премьеры: 3 октября 2019, Каро-Премьер
    Продолжительность: 01: 55: 15
    Качество видео: WEBRip
    Перевод: Дублированный (Line)
    Субтитры: Корейские (хардсаб)
    Реклама: Присутсвует банер и аудио реклама
    Видео: AVC/H.264, 1920х1040 (1.85: 1), ~6032 Kbps
    Аудио: AC3, 48.0 kHz, 2 ch, 192 Kbps
    General
    Unique ID : 17797423888688744607952171742365515129 (0xD63A8BEB5FF718F635FB457BBF87D79)
    Complete name : D: Joker_2019_1080p.mkv
    Format : Matroska
    Format version : Version 4
    File size : 5.01 GiB
    Duration : 1 h 55 min
    Overall bit rate mode : Variable
    Overall bit rate : 6 226 kb/s
    Encoded date : UTC 2019-11-13 00: 00: 58
    Writing application : mkvmerge v39.0.0 (\'In The Waiting Line\') 64-bit
    Writing library : libebml v1.3.9 + libmatroska v1.5.2
    Video
    ID : 1
    Format : AVC
    Format/Info : Advanced Video Codec
    Format profile : High@L4.1
    Format settings : CABAC/4 Ref Frames
    Format settings, CABAC : Yes
    Format settings, ReFrames : 4 frames
    Codec ID : V_MPEG4/ISO/AVC
    Duration : 1 h 55 min
    Bit rate mode : Variable
    Bit rate : 6 032 kb/s
    Maximum bit rate : 6 900 kb/s
    Width : 1 920 pixels
    Height : 1 040 pixels
    Display aspect ratio : 1.85: 1
    Frame rate mode : Constant
    Frame rate : 23.976 (24000/1001) FPS
    Standard : Component
    Color space : YUV
    Chroma subsampling : 4: 2: 0
    Bit depth : 8 bits
    Scan type : Progressive
    Bits/(Pixel*Frame) : 0.126
    Stream size : 4.86 GiB (97%)
    Language : English
    Default : Yes
    Forced : No
    Color range : Limited
    Color primaries : BT.709
    Transfer characteristics : BT.709
    Matrix coefficients : BT.709
    Audio
    ID : 2
    Format : AC-3
    Format/Info : Audio Coding 3
    Commercial name : Dolby Digital
    Codec ID : A_AC3
    Duration : 1 h 55 min
    Bit rate mode : Constant
    Bit rate : 192 kb/s
    Channel(s) : 2 channels
    Channel layout : L R
    Sampling rate : 48.0 kHz
    Frame rate : 31.250 FPS (1536 SPF)
    Bit depth : 16 bits
    Compression mode : Lossy
    Delay relative to video : -42 ms
    Stream size : 158 MiB (3%)
    Language : Russian
    Service kind : Complete Main
    Default : Yes
    Forced : No

    Скриншоты для ознакомления



    Все одноименные релизы в Клубе
    Время раздачи: 24/7 (до появления первых 3-5 скачавших)

    Онлайн видео Джокер



    Джокер / Joker (2019) WEBRip [H.264 / 1080p-LQ] [Line, AD] торрент скачать бесплатно
    Рейтинг →
     (голосов: 1, оценка 5/5, голосовать можно 1 раз )

    Другие торренты по теме:

  • Джокер / Joker (2019) TS [AD]
  • Джокер / Joker (2012) DVDRip
  • Джокер / Joker (2019) WEBRip [H.264 / 1080p-LQ] [AVO]
  • Джокер / Joker (2019) WEBRip [H.264 / 1080p] [EN / KOR Sub]
  • Джокер / Joker (2019) WEBRip [H.264 / 720p-LQ] [AVO]
  • Джокер / Joker (2019) WEBRip [H.264 / 720p-LQ] [MVO]
  • Джокер / Joker (2019) WEBRip [H.264 / 1080p] [PR]
  • Джокер / Joker (2019) WEB-DL [H.264 / 1080p-LQ] [Line]


    • Комментарии (0):

      Информация

      Информация

        Посетители, находящиеся в группе Гости, не могут оставлять комментарии в данной новости.

        ↓ Меню




        ↓ Опрос

        Вы добавили сайт в закладки?
        Да
        Нет


        Популярное