.
Авторизация | Регистрация
bitok.xyz
Торрент скачать бесплатно Фильмы торрент скачать Красный и розовый / Aka x Pinku / Girls Blood (2014) BDRemux [H.264 / 1080p] [VO] торрент скачать бесплатно


    Красный и розовый / Aka x Pinku / Girls Blood (2014) BDRemux [H.264 / 1080p] [VO] торрент скачать бесплатно

    Дата: 14-11-2019, 05:00 | .torrent скачали: 0

    Красный и розовый / Aka x Pinku / Girls Blood (2014) BDRemux [H.264 / 1080p] [VO]Производство: Япония/Kadokawa Daiei Studios, Kadokawa, Pony Canyon
    Жанр: Боевик
    Режиссер: Коити Сакамото
    Продюсер: Хидэхиса Тивада, Дзюнго Марута, Удзикацу Омори

    Актеры
    Юриа Хага, Санаэ Хитоми, Рина Коикэ, Такахиса Маэяма, Аямэ Мисаки, Мисаки Момосэ, Сё Нисино, Харука Ошима, Хидэо Сакаки, Рина Сакураги

    Описание

    В подвале заброшенной школы в Роппонги каждую неделю проходят бои без правил под названием Кровавая девушка. В этих боях принимают участие четверо девушек, у каждой из которых своя история попадания на ринг. Сацуки страдает от расстройства гендерной идентичности (никак не может определиться, кто ее внутреннее я — парень или девушка). Тинацу сбежала от мужа-подонка. Мика является королевой компании SМ. А у Маю невинное личико Лолиты… Каждая из них может постоять за себя. Вот только что будет, когда они сойдутся на ринге друг против друга…

    Возраст: 18+ (зрителям, достигшим 18 лет. запрещено для детей)
    Релиз от: R.G. Goldenshara
    Продолжительность: 02: 07: 57
    Качество видео: BDRemux
    Перевод: Одноголосый любительский (den904)
    Субтитры: отсутствуют
    Видео: AVC/H.264, 1920x1080 (16: 9), ~35.0 Mbps, 23.976 fps
    Аудио #1: AC3, 2 ch, 48.0 KHz, 192 kbps | Русский
    Аудио #2: TrueHD, 6 ch, 48.0 KHz, 3369 kbps | Японский
    Аудио #3: AC3, 6 ch, 48.0 KHz, 640 kbps | Японский
    General
    Unique ID : 254721633021978002663246635431921834011 (0xBFA19A2014DB4940ACD7AA82F7F5D81B)
    Complete name : E: Мои рипыКрасный и розовый.2014.BDRemux.1080p.R.G. Goldenshara.mkv
    Format : Matroska
    Format version : Version 4/Version 2
    File size : 35.0 GiB
    Duration : 2h 7mn
    Overall bit rate mode : Variable
    Overall bit rate : 39.2 Mbps
    Encoded date : UTC 2019-11-12 15: 35: 09
    Writing application : mkvmerge v6.8.0 (\'Theme for Great Cities\') 64bit built on Mar 2 2014 21: 34: 26
    Writing library : libebml v1.3.0 + libmatroska v1.4.1
    Video
    ID : 1
    Format : AVC
    Format/Info : Advanced Video Codec
    Format profile : High@L4.1
    Format settings, CABAC : Yes
    Format settings, ReFrames : 4 frames
    Codec ID : V_MPEG4/ISO/AVC
    Duration : 2h 7mn
    Bit rate mode : Variable
    Maximum bit rate : 38.0 Mbps
    Width : 1 920 pixels
    Height : 1 080 pixels
    Display aspect ratio : 16: 9
    Frame rate mode : Constant
    Frame rate : 23.976 fps
    Color space : YUV
    Chroma subsampling : 4: 2: 0
    Bit depth : 8 bits
    Scan type : Progressive
    Language : Japanese
    Default : Yes
    Forced : No
    Audio #1
    ID : 2
    Format : AC-3
    Format/Info : Audio Coding 3
    Mode extension : CM (complete main)
    Format settings, Endianness : Big
    Codec ID : A_AC3
    Duration : 2h 7mn
    Bit rate mode : Constant
    Bit rate : 192 Kbps
    Channel(s) : 2 channels
    Channel positions : Front: L R
    Sampling rate : 48.0 KHz
    Bit depth : 16 bits
    Compression mode : Lossy
    Stream size : 176 MiB (0%)
    Title : VO den904
    Language : Russian
    Default : Yes
    Forced : No
    Audio #2
    ID : 3
    Format : TrueHD
    Codec ID : A_TRUEHD
    Duration : 2h 7mn
    Bit rate mode : Variable
    Maximum bit rate : 4 686 Kbps
    Channel(s) : 6 channels
    Channel positions : Front: L C R, Side: L R, LFE
    Sampling rate : 48.0 KHz
    Compression mode : Lossless
    Language : Japanese
    Default : No
    Forced : No
    Audio #3
    ID : 4
    Format : AC-3
    Format/Info : Audio Coding 3
    Mode extension : CM (complete main)
    Format settings, Endianness : Big
    Codec ID : A_AC3
    Duration : 2h 7mn
    Bit rate mode : Constant
    Bit rate : 640 Kbps
    Channel(s) : 6 channels
    Channel positions : Front: L C R, Side: L R, LFE
    Sampling rate : 48.0 KHz
    Bit depth : 16 bits
    Compression mode : Lossy
    Stream size : 586 MiB (2%)
    Title : AC3 embedded
    Language : Japanese
    Default : No
    Forced : No
    Menu
    00: 00: 00.000 : en: Chapter 01
    00: 14: 32.497 : en: Chapter 02
    00: 25: 15.139 : en: Chapter 03
    00: 33: 10.238 : en: Chapter 04
    00: 45: 41.822 : en: Chapter 05
    00: 53: 54.565 : en: Chapter 06
    01: 06: 16.264 : en: Chapter 07
    01: 16: 53.150 : en: Chapter 08
    01: 30: 49.319 : en: Chapter 09
    01: 42: 18.549 : en: Chapter 10
    01: 53: 27.259 : en: Chapter 11
    02: 03: 37.994 : en: Chapter 12


    Онлайн видео Красный и розовый



    Красный и розовый / Aka x Pinku / Girls Blood (2014) BDRemux [H.264 / 1080p] [VO] торрент скачать бесплатно
    Рейтинг →
     (голосов: 1, оценка 4/5, голосовать можно 1 раз )

    Другие торренты по теме:

  • Красный и розовый / Aka x Pinku (2014) HDRip [VO] скачать через торрент бесплатно


    • Комментарии (0):

      Информация

      Информация

        Посетители, находящиеся в группе Гости, не могут оставлять комментарии в данной новости.

        ↓ Меню




        ↓ Опрос

        Вы добавили сайт в закладки?
        Да
        Нет


        Популярное