ВАЖНО! Сайт скоро заблокируют! Подписывайся на наш канал в Telegram https://t.me/torrentok и получи доступ к торрентам без ограничений!
.
Авторизация | Регистрация
bitok.xyz
Торрент скачать бесплатно Фильмы торрент скачать Мандалорец / The Mandalorian (2019) WEBRip [H.264 / 1080p-LQ] (сезон 1, серия 1 из 8) (обновляемая) HDRezka Studio торрент скачать бесплатно


    Мандалорец / The Mandalorian (2019) WEBRip [H.264 / 1080p-LQ] (сезон 1, серия 1 из 8) (обновляемая) HDRezka Studio торрент скачать бесплатно

    Дата: 14-11-2019, 05:00 | .torrent скачали: 15

    Мандалорец / The Mandalorian (2019) WEBRip [H.264 / 1080p-LQ] (сезон 1, серия 1 из 8) (обновляемая) HDRezka StudioПроизводство: США/Lucasfilm Ltd., Walt Disney Studios
    Жанр: фантастика, боевик, приключения
    Режиссер: Дебора Чоу, Рик Фамуйива, Дэйв Филони

    Актеры
    Кайл Пацек, Педро Паскаль, Брендан Уэйн, Бернард Баллен, Александра Гилман, Luis Richard Gomez, Jamal Antar, Тейт Флетчер, Tony Taboada, Омид Абтахи

    Описание

    Одинокий мандалорец-наёмник живёт на краю обитаемой галактики, куда не дотягивается закон Новой Республики. Представитель некогда могучей расы благородных воинов теперь вынужден влачить жалкое существование среди отбросов общества.

    Дата мировой премьеры: 12 ноября 2019
    Продолжительность: ~00: 38: 00 серия
    Качество видео: WEBRip
    Перевод: Многоголосый профессиональный, закадровый -HDRezka Studio
    Видео: AVC/H.264, 1920x1080 (16: 9), ~5910 Kbps
    Аудио: AC3, 2 ch, 192 Kbps - русский
    Общее
    Уникальный идентификатор : 339699350331725516624587838109259385251 (0xFF8FB710173E41FA629CACDC8317C9A3)
    Полное имя : F: The.Mandalorian.S01E01.WEBRip.1080p.mkv
    Формат : Matroska
    Версия формата : Version 4
    Размер файла : 1, 66 Гбайт
    Продолжительность : 38 м. 56 с.
    Режим общего битрейта : Переменный
    Общий поток : 6106 Кбит/сек
    Дата кодирования : UTC 2019-11-13 00: 11: 23
    Программа кодирования : mkvmerge v28.2.0 (\'The Awakening\') 64-bit
    Библиотека кодирования : libebml v1.3.6 + libmatroska v1.4.9
    Видео
    Идентификатор : 1
    Формат : AVC
    Формат/Информация : Advanced Video Codec
    Профиль формата : High@L4.1
    Настройки формата : CABAC/1 Ref Frames
    Параметр CABAC формата : Да
    Параметр RefFrames формата : 1 кадр
    Идентификатор кодека : V_MPEG4/ISO/AVC
    Продолжительность : 38 м. 56 с.
    Вид битрейта : Переменный
    Битрейт : 5912 Кбит/сек
    Максимальный битрейт : 2000 Кбит/сек
    Ширина : 1920 пикселей
    Высота : 1080 пикселей
    Соотношение сторон : 16: 9
    Режим частоты кадров : Постоянный
    Частота кадров : 23, 976 (24000/1001) кадра/сек
    Цветовое пространство : YUV
    Субдискретизация насыщенности : 4: 2: 0
    Битовая глубина : 8 бит
    Тип развёртки : Прогрессивная
    Бит/(Пиксели*Кадры) : 0.119
    Размер потока : 1, 61 Гбайт (97%)
    Default : Да
    Forced : Нет
    Аудио
    Идентификатор : 2
    Формат : AC-3
    Формат/Информация : Audio Coding 3
    Коммерческое название : Dolby Digital
    Идентификатор кодека : A_AC3
    Продолжительность : 38 м. 56 с.
    Вид битрейта : Постоянный
    Битрейт : 192 Кбит/сек
    Каналы : 2 канала
    ChannelLayout : L R
    Частота : 48, 0 КГц
    Частота кадров : 31, 250 кадров/сек (1536 SPF)
    Метод сжатия : С потерями
    Размер потока : 53, 5 Мбайт (3%)
    Язык : Russian
    ServiceKind/String : Complete Main
    Default : Да
    Forced : Нет

    Скриншоты для ознакомления



    Все одноименные релизы в Клубе
    Время раздачи: 24/7 (круглосуточно) (до появления первых 3-5 скачавших)

    Онлайн видео Мандалорец



    Мандалорец / The Mandalorian (2019) WEBRip [H.264 / 1080p-LQ] (сезон 1, серия 1 из 8) (обновляемая) HDRezka Studio торрент скачать бесплатно
    Рейтинг →
     (голосов: 1, оценка 5/5, голосовать можно 1 раз )

    Другие торренты по теме:

  • Мандалорец / Mandalorian (2019) WEBRip [H.264 / 720p-LQ] (сезон 1, серии 1-2 из 8) (обновляемая) finargot
  • Мандалорец / Mandalorian (2019) WEBRip [H.264 / 1080p] (сезон 1, серии 1-3 из 8) finargot (обновляемая)
  • Мандалорец / Mandalorian (2019) WEB-DL [H.264 / 1080p] (сезон 1 серии 1-4 из 8) Flarrow Films (обновляемая)
  • Мандалорец / The Mandalorian (2019) WEBRip [H.264 / 1080p-LQ] (сезон 1, серия 1 из 8) (обновляемая) LakeFilms [AD]
  • Мандалорец / The Mandalorian (2019) WEBRip (сезон 1, серии 1-2 из 8) (обновляемая) HDRezka Studio
  • Мандалорец / The Mandalorian (2019) WEB-DLRip (сезон 1, серия 1 из 8) Lostfilm (обновляемая)
  • Мандалорец / The Mandalorian (2019) WEB-DLRip [H.264 / 720p-LQ] (сезон 1, серии 1 из 8) AMS (обновляемая) [AD] [PR]
  • Мандалорец / The Mandalorian (2019) WEB-DLRip [H.264 / 1080p-LQ] (сезон 1, серии 1 из 8) AMS (обновляемая) [AD]


    • Комментарии (0):

      Информация

      Информация

        Посетители, находящиеся в группе Гости, не могут оставлять комментарии в данной новости.

        ↓ Меню




        Популярное