.
Авторизация | Регистрация
bitok.xyz
Торрент скачать бесплатно Фильмы торрент скачать Джокер / Joker (2019) WEBRip [H.264 / 720p-LQ] [MVO] торрент скачать бесплатно


    Джокер / Joker (2019) WEBRip [H.264 / 720p-LQ] [MVO] торрент скачать бесплатно

    Дата: 15-11-2019, 05:00 | .torrent скачали: 13

    Джокер / Joker (2019) WEBRip [H.264 / 720p-LQ] [MVO]Производство: США, Канада/BRON Studios, Creative Wealth Media Finance, DC Comics
    Жанр: Триллер, драма, криминал
    Режиссер: Тодд Филлипс

    Актеры
    Хоакин Феникс, Роберт Де Ниро, Зази Битц, Фрэнсис Конрой, Бретт Каллен, Шей Уигэм, Билл Кэмп, Гленн Флешлер, Ли Гилл, Джош Пэйс

    Описание

    Готэм, начало 1980-х годов. Комик Артур Флек живет с больной матерью, которая с детства учит его ходить с улыбкой. Пытаясь нести в мир хорошее и дарить людям радость, Артур сталкивается с человеческой жестокостью и постепенно приходит к выводу, что этот мир получит от него не добрую улыбку, а ухмылку злодея Джокера.

    Возраст: 18+ (зрителям, достигшим 18 лет. запрещено для детей)
    Рейтинг MPAA: R (лицам до 17 лет обязательно присутствие взрослого)
    Дата мировой премьеры: 31 августа 2019
    Дата российской премьеры: 3 октября 2019
    Продолжительность: 01: 55: 32
    Качество видео: WEBRip (walledol )
    Перевод: Любительский многоголосый (Mallorn Studio) -ненормативная лексика, Авторский одноголосый (BadBajo)
    Субтитры: Русские (Mallorn), английские, корейские (хардсаб)
    Видео: AVC/H.264, 1280x692, ~5500 Кbps, 24 fps
    Аудио 1: AC3, 2 ch, 384 Kbps - Русский (MVO Mallorn)
    Аудио 2: AC3, 2 ch, 448 Kbps - Русский (AVO BadBajo)
    Аудио 3: AC3, 2 ch, 192 Kbps - Украинский (MVO Postmodern)
    Аудио 4: AC3, 2 ch, 384 Kbps - Английский
    Общее
    Уникальный идентификатор : 15334098445511040746380445600213124011 (0xB893D6C7CD2408CB34F508EB27843AB)
    Полное имя : Joker.2019.KORSUB.HDRip.720p.mkv
    Формат : Matroska
    Версия формата : Version 4
    Размер файла : 5, 58 Гбайт
    Продолжительность : 1 ч. 55 м.
    Общий поток : 6910 Кбит/сек
    Название фильма : Joker.2019.KORSUB.HDRip.720p
    Дата кодирования : UTC 2019-11-13 22: 18: 18
    Программа кодирования : mkvmerge v23.0.0 (\'The Bride Said No\') 64-bit
    Библиотека кодирования : libebml v1.3.6 + libmatroska v1.4.9
    Обложка : Yes
    Attachments : cover.jpg/small_cover.jpg
    Видео
    Идентификатор : 1
    Формат : AVC
    Формат/Информация : Advanced Video Codec
    Профиль формата : High@L4.1
    Настройки формата : CABAC/9 Ref Frames
    Параметр CABAC формата : Да
    Параметр RefFrames формата : 9 кадров
    Идентификатор кодека : V_MPEG4/ISO/AVC
    Продолжительность : 1 ч. 55 м.
    Битрейт : 5500 Кбит/сек
    Ширина : 1280 пикселей
    Высота : 692 пикселя
    Соотношение сторон : 1, 85: 1
    Режим частоты кадров : Постоянный
    Частота кадров : 24, 000 кадра/сек
    Цветовое пространство : YUV
    Субдискретизация насыщенности : 4: 2: 0
    Битовая глубина : 8 бит
    Тип развёртки : Прогрессивная
    Бит/(Пиксели*Кадры) : 0.259
    Размер потока : 4, 44 Гбайт (80%)
    Заголовок : rip by -=walledol=-
    Библиотека кодирования : x264 core 157 r2945 72db437
    Настройки программы : cabac=1/ref=9/deblock=1: -3: -3/analyse=0x3: 0x133/me=umh/subme=11/psy=1/psy_rd=1.00: 0.00/mixed_ref=1/me_range=32/chroma_me=1/trellis=2/8x8dct=1/cqm=0/deadzone=21, 11/fast_pskip=0/chroma_qp_offset=-2/threads=12/lookahead_threads=3/sliced_threads=0/nr=0/decimate=1/interlaced=0/bluray_compat=0/constrained_intra=0/bframes=10/b_pyramid=2/b_adapt=2/b_bias=0/direct=1/weightb=1/open_gop=0/weightp=2/keyint=240/keyint_min=23/scenecut=40/intra_refresh=0/rc_lookahead=60/rc=abr/mbtree=0/bitrate=5500/ratetol=1.0/qcomp=0.60/qpmin=0/qpmax=69/qpstep=4/vbv_maxrate=30000/vbv_bufsize=33000/nal_hrd=none/filler=0/ip_ratio=1.40/pb_ratio=1.30/aq=3: 0.80
    Язык : English
    Default : Да
    Forced : Нет
    Аудио #1
    Идентификатор : 2
    Формат : AC-3
    Формат/Информация : Audio Coding 3
    Коммерческое название : Dolby Digital
    Идентификатор кодека : A_AC3
    Продолжительность : 1 ч. 55 м.
    Вид битрейта : Постоянный
    Битрейт : 384 Кбит/сек
    Каналы : 2 канала
    ChannelLayout : L R
    Частота : 48, 0 КГц
    Частота кадров : 31, 250 кадров/сек (1536 SPF)
    Метод сжатия : С потерями
    Размер потока : 317 Мбайт (6%)
    Заголовок : MVO - Mallorn
    Язык : Russian
    ServiceKind/String : Complete Main
    Default : Да
    Forced : Нет
    Аудио #2
    Идентификатор : 3
    Формат : AC-3
    Формат/Информация : Audio Coding 3
    Коммерческое название : Dolby Digital
    Идентификатор кодека : A_AC3
    Продолжительность : 1 ч. 55 м.
    Вид битрейта : Постоянный
    Битрейт : 448 Кбит/сек
    Каналы : 2 канала
    ChannelLayout : L R
    Частота : 48, 0 КГц
    Частота кадров : 31, 250 кадров/сек (1536 SPF)
    Метод сжатия : С потерями
    Размер потока : 370 Мбайт (6%)
    Заголовок : AVO - BadBajo
    Язык : Russian
    ServiceKind/String : Complete Main
    Default : Нет
    Forced : Нет
    Аудио #3
    Идентификатор : 4
    Формат : AC-3
    Формат/Информация : Audio Coding 3
    Коммерческое название : Dolby Digital
    Идентификатор кодека : A_AC3
    Продолжительность : 1 ч. 55 м.
    Вид битрейта : Постоянный
    Битрейт : 192 Кбит/сек
    Каналы : 2 канала
    ChannelLayout : L R
    Частота : 48, 0 КГц
    Частота кадров : 31, 250 кадров/сек (1536 SPF)
    Метод сжатия : С потерями
    Размер потока : 159 Мбайт (3%)
    Язык : Ukrainian
    ServiceKind/String : Complete Main
    Default : Нет
    Forced : Нет
    Аудио #4
    Идентификатор : 5
    Формат : AC-3
    Формат/Информация : Audio Coding 3
    Коммерческое название : Dolby Digital
    Идентификатор кодека : A_AC3
    Продолжительность : 1 ч. 55 м.
    Вид битрейта : Постоянный
    Битрейт : 384 Кбит/сек
    Каналы : 2 канала
    ChannelLayout : L R
    Частота : 48, 0 КГц
    Частота кадров : 31, 250 кадров/сек (1536 SPF)
    Метод сжатия : С потерями
    Задержка видео : 114 мс.
    Размер потока : 317 Мбайт (6%)
    Язык : English
    ServiceKind/String : Complete Main
    Default : Нет
    Forced : Нет
    Текст #1
    Идентификатор : 6
    Формат : UTF-8
    Идентификатор кодека : S_TEXT/UTF8
    Идентификатор кодека/Информация : UTF-8 Plain Text
    Продолжительность : 1 ч. 55 м.
    Битрейт : 69 бит/сек
    ElementCount : 1188
    Размер потока : 58, 8 Кбайт (0%)
    Заголовок : Mallorn
    Язык : Russian
    Default : Нет
    Forced : Нет
    Текст #2
    Идентификатор : 7
    Формат : UTF-8
    Идентификатор кодека : S_TEXT/UTF8
    Идентификатор кодека/Информация : UTF-8 Plain Text
    Продолжительность : 1 ч. 53 м.
    Битрейт : 44 бит/сек
    ElementCount : 1123
    Размер потока : 36, 9 Кбайт (0%)
    Язык : English
    Default : Нет
    Forced : Нет

    Скриншоты для ознакомления



    Все одноименные релизы в Клубе
    Время раздачи: 24/7 (до появления первых 3-5 скачавших)

    Онлайн видео Джокер



    Джокер / Joker (2019) WEBRip [H.264 / 720p-LQ] [MVO] торрент скачать бесплатно
    Рейтинг →
     (голосов: 1, оценка 3/5, голосовать можно 1 раз )

    Другие торренты по теме:

  • Джокер / Joker (2019) TS [AD]
  • Джокер / Joker (2012) DVDRip
  • Джокер / Joker (2019) WEBRip [H.264 / 1080p-LQ] [AVO]
  • Джокер / Joker (2019) WEBRip [H.264 / 1080p] [EN / KOR Sub]
  • Джокер / Joker (2019) WEBRip [H.264 / 720p-LQ] [AVO]
  • Джокер / Joker (2019) WEBRip [H.264 / 1080p-LQ] [Line, AD]
  • Джокер / Joker (2019) WEBRip [H.264 / 1080p] [PR]
  • Джокер / Joker (2019) WEB-DL [H.264 / 1080p-LQ] [Line]


    • Комментарии (0):

      Информация

      Информация

        Посетители, находящиеся в группе Гости, не могут оставлять комментарии в данной новости.

        ↓ Меню




        ↓ Опрос

        Вы добавили сайт в закладки?
        Да
        Нет


        Популярное