.
Авторизация | Регистрация
bitok.xyz
» » Гарри Поттер и Кубок огня / Harry Potter and the Goblet of Fire (2005) WEB-DL [H.264 / 1080p] [Open Matte] торрент скачать бесплатно


    Гарри Поттер и Кубок огня / Harry Potter and the Goblet of Fire (2005) WEB-DL [H.264 / 1080p] [Open Matte] торрент скачать бесплатно

    Дата: 16-11-2019, 05:00 | .torrent скачали: 8

    Гарри Поттер и Кубок огня / Harry Potter and the Goblet of Fire (2005) WEB-DL [H.264 / 1080p] [Open Matte]Производство: Великобритания, США/Warner Bros.
    Жанр: фэнтези, приключения, семейный
    Режиссер: Майк Ньюэлл

    Актеры
    Дэниэл Рэдклифф, Руперт Гринт, Эмма Уотсон, Брендан Глисон, Алан Рикман, Майкл Гэмбон, Рэйф Файнс, Роберт Паттинсон, Робби Колтрейн, Мэгги Смит

    Описание

    Гарри Поттер, Рон и Гермиона возвращаются на четвёртый курс школы чародейства и волшебства Хогвартс. При таинственных обстоятельствах Гарри был отобран в число участников опасного соревнования — Турнира Трёх Волшебников, однако проблема в том, что все его соперники — намного старше и сильнее.
    К тому же, знаки указывают на возвращение Лорда Волдеморта. Вскоре Гарри предстоит побороться не только за победу в соревновании, но и, прежде всего, за свою жизнь.

    Возраст: 16+ (зрителям, достигшим 16 лет)
    Рейтинг MPAA: PG-13 (детям до 13 лет просмотр нежелателен)
    Продолжительность: 02: 37: 14
    Качество видео: WEB-DL
    Перевод: Дублированный
    Субтитры: русские, английские
    Видео: AVC/H.264, 1920x1080, ~10.5 mbps
    Аудио 1: AC3, 6 ch, 448 kbps, Русский (DUB)
    Аудио 2: E-AC-3, 6 ch, 640 kbps, Английский
    Общее
    Уникальный идентификатор : 203102452861656906003578904229388881955 (0x98CC1C0D12A7C9C1800DB7BF081E1023)
    Полное имя : D: FILMSZALIVHarry.Potter.and.the.Goblet.of.Fire.2005.Open.Matte.1080p.WEB-DL.mkv
    Формат : Matroska
    Версия формата : Version 4
    Размер файла : 12, 7 Гбайт
    Продолжительность : 2 ч. 37 м.
    Режим общего битрейта : Переменный
    Общий поток : 11, 6 Мбит/сек
    Название фильма : Harry.Potter.and.the.Goblet.of.Fire.2005.Open.Matte.1080p.WEB-DL.6xRus.Eng-spartanec163
    Дата кодирования : UTC 2019-11-15 03: 20: 16
    Программа кодирования : mkvmerge v8.2.0 (\'World of Adventure\') 64bit
    Библиотека кодирования : libebml v1.3.1 + libmatroska v1.4.2
    Видео
    Идентификатор : 1
    Формат : AVC
    Формат/Информация : Advanced Video Codec
    Профиль формата : High@L4
    Настройки формата : CABAC/4 Ref Frames
    Параметр CABAC формата : Да
    Параметр RefFrames формата : 4 кадра
    Идентификатор кодека : V_MPEG4/ISO/AVC
    Продолжительность : 2 ч. 37 м.
    Вид битрейта : Переменный
    Битрейт : 10, 5 Мбит/сек
    Максимальный битрейт : 15, 0 Мбит/сек
    Ширина : 1920 пикселей
    Высота : 1080 пикселей
    Соотношение сторон : 16: 9
    Режим частоты кадров : Постоянный
    Частота кадров : 23, 976 (24000/1001) кадра/сек
    Цветовое пространство : YUV
    Субдискретизация насыщенности : 4: 2: 0
    Битовая глубина : 8 бит
    Тип развёртки : Прогрессивная
    Бит/(Пиксели*Кадры) : 0.211
    Размер потока : 11, 5 Гбайт (91%)
    Заголовок : WEB-DL 1080p (Amazon)
    Язык : English
    Default : Да
    Forced : Нет
    Цветовой диапазон : Limited
    Основные цвета : BT.709
    Характеристики трансфера : BT.709
    Коэффициенты матрицы : BT.709
    Аудио #1
    Идентификатор : 2
    Формат : AC-3
    Формат/Информация : Audio Coding 3
    Коммерческое название : Dolby Digital
    Идентификатор кодека : A_AC3
    Продолжительность : 2 ч. 37 м.
    Вид битрейта : Постоянный
    Битрейт : 448 Кбит/сек
    Каналы : 6 каналов
    ChannelLayout : L R C LFE Ls Rs
    Частота : 48, 0 КГц
    Частота кадров : 31, 250 кадров/сек (1536 SPF)
    Метод сжатия : С потерями
    Размер потока : 504 Мбайт (4%)
    Заголовок : AC3 5.1 448Kbps (Дубляж - BluRay)
    Язык : Russian
    ServiceKind/String : Complete Main
    Default : Да
    Forced : Нет
    Аудио #2
    Идентификатор : 3
    Формат : E-AC-3
    Формат/Информация : Enhanced AC-3
    Коммерческое название : Dolby Digital Plus
    Идентификатор кодека : A_EAC3
    Продолжительность : 2 ч. 37 м.
    Вид битрейта : Постоянный
    Битрейт : 640 Кбит/сек
    Каналы : 6 каналов
    ChannelLayout : L R C LFE Ls Rs
    Частота : 48, 0 КГц
    Частота кадров : 31, 250 кадров/сек (1536 SPF)
    Метод сжатия : С потерями
    Размер потока : 720 Мбайт (6%)
    Заголовок : E-AC3 5.1 640Kbps (Оригинал - Amazon)
    Язык : English
    ServiceKind/String : Complete Main
    Default : Нет
    Forced : Нет
    Текст #1
    Идентификатор : 4
    Формат : UTF-8
    Идентификатор кодека : S_TEXT/UTF8
    Идентификатор кодека/Информация : UTF-8 Plain Text
    Продолжительность : 2 ч. 36 м.
    Битрейт : 0 бит/сек
    ElementCount : 13
    Размер потока : 482 байт (0%)
    Заголовок : Captions
    Язык : Russian
    Default : Да
    Forced : Нет
    Текст #2
    Идентификатор : 5
    Формат : UTF-8
    Идентификатор кодека : S_TEXT/UTF8
    Идентификатор кодека/Информация : UTF-8 Plain Text
    Продолжительность : 2 ч. 36 м.
    Битрейт : 73 бит/сек
    ElementCount : 1557
    Размер потока : 84, 1 Кбайт (0%)
    Заголовок : Full, BluRay
    Язык : Russian
    Default : Нет
    Forced : Нет
    Текст #3
    Идентификатор : 6
    Формат : UTF-8
    Идентификатор кодека : S_TEXT/UTF8
    Идентификатор кодека/Информация : UTF-8 Plain Text
    Продолжительность : 2 ч. 36 м.
    Битрейт : 48 бит/сек
    ElementCount : 1798
    Размер потока : 55, 4 Кбайт (0%)
    Заголовок : Full, SDH, BluRay
    Язык : English
    Default : Нет
    Forced : Нет

    Скриншоты для ознакомления



    Все одноименные релизы в Клубе
    Время раздачи: c 5 до 19 мск (до появления первых 3-5 скачавших)

    Онлайн видео Гарри Поттер и Кубок огня



    Гарри Поттер и Кубок огня/Harry Potter and the Goblet of Fire (2005) WEB-DL [H.264/1080p] [Open Matte]
    Рейтинг →
     (голосов: 1, оценка 3/5, голосовать можно 1 раз )

    Другие торренты по теме:

  • Гарри Поттер и Партия Ленина / Гарри Поттер и Орден Феникса / Harry Potter and the Order of the Phoenix (2009) DVDRip
  • Гарри Поттер и Кубок огня / Harry Potter and the Goblet of Fire (2005) HDRip [H.264] [Ultimate Cut]
  • Гарри Поттер и Орден Феникса / Harry Potter and the Order of the Phoenix (2007) HDRip [H.264] [Ultimate Cut]
  • Джоан Роулинг | Гарри Поттер и Кубок огня [2008] [M4B | AAC] скачать через торрент бесплатно
  • Джоан Роулинг | Гарри Поттер и Дары Смерти [2011] [M4B | AAC] скачать через торрент бесплатно
  • Джоан Роулинг | Гарри Поттер и Принц-полукровка [2011] [M4B | AAC] скачать через торрент бесплатно
  • Джоан Роулинг | Гарри Поттер и Орден Феникса [2008] [M4B | AAC] скачать через торрент бесплатно
  • Джоан Роулинг | Гарри Поттер и узник Азкабана [2006] [M4B | AAC] скачать через торрент бесплатно


    • Комментарии (0):

      Информация

      Информация

        Посетители, находящиеся в группе Гости, не могут оставлять комментарии в данной новости.

        ↓ Меню




        ↓ Опрос

        Вы добавили сайт в закладки?
        Да
        Нет


        Популярное

        Полицейский с Рублёвки. Новогодний беспредел 2 (2019) CamRip [AD]

        (скачиваний: 2276)
        Властелин колец: Трилогия / The Lord of the Rings: Trilogy (2001,2002,2003) BDRip [H.264] [Extended Editions] скачать через торрент бесплатно

        (скачиваний: 672)
        Властелин колец / The Lord of the Rings (2001,2002,2003) BDRip [Extended Edition] [H.264 / 1080p-LQ] [Hi10P]

        (скачиваний: 661)
        Начало / Inception (2010) BDRip [H.265 / 1080p]

        (скачиваний: 642)
        Властелин колец / The Lord of the Rings (2001,2002,2003) BDRip [1080p] [Extended Edition] [Трилогия]

        (скачиваний: 608)
        Квартирник НТВ у Маргулиса. Новогодний выпуск (31.12.2019) WEB-DL [H.264 / 1080p-LQ]

        (скачиваний: 456)
        Каникулы off-line (2018) WEBRip

        (скачиваний: 438)
        Хоббит: Трилогия / The Hobbit: Trilogy (2012, 2013, 2014) BDRip [H.265 / 1080p-LQ] [10-bit] [Расширенная версия]

        (скачиваний: 398)
        Властелин колец / The Lord of the Rings (2001,2002,2003) BDRip [1080p] [Extended Edition] [Трилогия] скачать через торрент бесплатно

        (скачиваний: 277)
        Во все тяжкие / Breaking Bad (2008-2013) BDRip [H.264 / 1080p] (сезон 1-5, серии 1-62 из 62) Кубик в Кубе, LostFilm скачать через торрент бесплатно

        (скачиваний: 256)