.
Авторизация | Регистрация
bitok.xyz
Торрент скачать бесплатно Фильмы торрент скачать Адская кухня / The Kitchen (2019) BDRip [H.264 / 1080p] [PR] торрент скачать бесплатно


    Адская кухня / The Kitchen (2019) BDRip [H.264 / 1080p] [PR] торрент скачать бесплатно

    Дата: 17-11-2019, 05:00 | .torrent скачали: 1

    Адская кухня / The Kitchen (2019) BDRip [H.264 / 1080p] [PR]Производство: США/BRON Studios, Creative Wealth Media Finance, DC Vertigo
    Жанр: боевик, драма, криминал
    Режиссер: Андреа Берлофф

    Актеры
    Мелисса Маккарти, Тиффани Хэддиш, Элизабет Мосс, Донал Глисон, Джеймс Бэдж Дэйл, Брайан Д\'Арси Джеймс, Джереми Бобб, Марго Мартиндейл, Билл Кэмп, Коммон, Э.Дж. Бонилья, Мик Вотфорд, Уэйн Дювалл, Памела Данлэп, Джон Шэриан

    Описание

    История трёх домохозяек, проживающих в нью-йоркском районе Адская кухня, чьих мужей-мафиози ФБР посадило в тюрьму. Дело происходит в 1978 году, у этих дам нет ничего, кроме желания добиться своего, взяв дела ирландской мафии в свои руки. Оказывается, что и тут они чувствуют себя как рыба в воде во всём: от рэкета до устранения конкурентов… в буквальном смысле.

    Возраст: 16+ (зрителям, достигшим 16 лет)
    Рейтинг MPAA: R (лицам до 17 лет обязательно присутствие взрослого)
    Дата мировой премьеры: 8 августа 2019
    Релиз от: NNMClub
    Продолжительность: 01: 42: 38
    Качество видео: BDRip
    Перевод: Дублированный (iTunes)
    Субтитры: Русские (форс., полные), английские
    Видео: AVC/H.264, 1920x800 (2.40: 1), ~9163 kbps
    Аудио: AC3, 2 ch, 192 kbps | Русский (DUB)
    Аудио: DTS, 6 ch, 1509 kbps | Английский
    General
    Complete name : Адская кухня_The Kitchen (2019) BDRip.H.264.1080p.NNMClub.mkv
    Format : Matroska
    Format version : Version 4
    File size : 7.79 GiB
    Duration : 1 h 42 min
    Overall bit rate : 10.9 Mb/s
    Movie name : Адская кухня_The Kitchen (2019) BDRip.H.264.1080p.NNMClub
    Encoded date : UTC 2019-11-16 14: 55: 48
    Writing application : mkvmerge v36.0.0 (\'Is That Jazz?\') 64-bit
    Writing library : libebml v1.3.9 + libmatroska v1.5.2
    Video
    ID : 1
    Format : AVC
    Format/Info : Advanced Video Codec
    Format profile : High@L4.1
    Format settings : CABAC/5 Ref Frames
    Format settings, CABAC : Yes
    Format settings, Reference frames : 5 frames
    Codec ID : V_MPEG4/ISO/AVC
    Duration : 1 h 42 min
    Bit rate : 9 163 kb/s
    Width : 1 920 pixels
    Height : 800 pixels
    Display aspect ratio : 2.40: 1
    Frame rate mode : Constant
    Frame rate : 23.976 (24000/1001) FPS
    Color space : YUV
    Chroma subsampling : 4: 2: 0
    Bit depth : 8 bits
    Scan type : Progressive
    Bits/(Pixel*Frame) : 0.249
    Stream size : 6.57 GiB (84%)
    Title : Адская кухня_The Kitchen (2019) BDRip.H.264.1080p.NNMClub
    Writing library : x264 core 158 r2984 3759fcb
    Encoding settings : cabac=1/ref=5/deblock=1: -3: -3/analyse=0x3: 0x113/me=umh/subme=8/psy=1/psy_rd=1.00: 0.00/mixed_ref=1/me_range=16/chroma_me=1/trellis=1/8x8dct=1/cqm=0/deadzone=21, 11/fast_pskip=1/chroma_qp_offset=-2/threads=25/lookahead_threads=4/sliced_threads=0/nr=0/decimate=1/interlaced=0/bluray_compat=0/constrained_intra=0/bframes=3/b_pyramid=2/b_adapt=1/b_bias=0/direct=3/weightb=1/open_gop=0/weightp=2/keyint=250/keyint_min=23/scenecut=40/intra_refresh=0/rc_lookahead=50/rc=2pass/mbtree=1/bitrate=9163/ratetol=1.0/qcomp=0.60/qpmin=0/qpmax=69/qpstep=4/cplxblur=20.0/qblur=0.5/ip_ratio=1.40/aq=1: 1.00
    Language : English
    Default : Yes
    Forced : No
    Audio #1
    ID : 2
    Format : AC-3
    Format/Info : Audio Coding 3
    Commercial name : Dolby Digital
    Codec ID : A_AC3
    Duration : 1 h 42 min
    Bit rate mode : Constant
    Bit rate : 192 kb/s
    Channel(s) : 2 channels
    Channel layout : L R
    Sampling rate : 48.0 kHz
    Frame rate : 31.250 FPS (1536 SPF)
    Compression mode : Lossy
    Stream size : 141 MiB (2%)
    Title : Дублированный (iTunes)
    Language : Russian
    Service kind : Complete Main
    Default : Yes
    Forced : No
    Audio #2
    ID : 3
    Format : DTS
    Format/Info : Digital Theater Systems
    Codec ID : A_DTS
    Duration : 1 h 42 min
    Bit rate mode : Constant
    Bit rate : 1 509 kb/s
    Channel(s) : 6 channels
    Channel layout : C L R Ls Rs LFE
    Sampling rate : 48.0 kHz
    Frame rate : 93.750 FPS (512 SPF)
    Bit depth : 24 bits
    Compression mode : Lossy
    Stream size : 1.08 GiB (14%)
    Language : English
    Default : No
    Forced : No
    Text #1
    ID : 4
    Format : UTF-8
    Codec ID : S_TEXT/UTF8
    Codec ID/Info : UTF-8 Plain Text
    Duration : 1 h 41 min
    Bit rate : 0 b/s
    Count of elements : 7
    Stream size : 288 Bytes (0%)
    Title : Форс.
    Language : Russian
    Default : No
    Forced : No
    Text #2
    ID : 5
    Format : UTF-8
    Codec ID : S_TEXT/UTF8
    Codec ID/Info : UTF-8 Plain Text
    Duration : 1 h 41 min
    Bit rate : 82 b/s
    Count of elements : 1461
    Stream size : 61.3 KiB (0%)
    Title : Полные
    Language : Russian
    Default : No
    Forced : No
    Text #3
    ID : 6
    Format : UTF-8
    Codec ID : S_TEXT/UTF8
    Codec ID/Info : UTF-8 Plain Text
    Duration : 1 h 36 min
    Bit rate : 55 b/s
    Count of elements : 1444
    Stream size : 39.3 KiB (0%)
    Language : English
    Default : No
    Forced : No
    Menu
    00: 00: 00.000 : en: 00: 00: 00.000
    00: 09: 26.274 : en: 00: 09: 26.274
    00: 17: 09.987 : en: 00: 17: 09.987
    00: 27: 10.838 : en: 00: 27: 10.838
    00: 37: 37.755 : en: 00: 37: 37.755
    00: 44: 59.280 : en: 00: 44: 59.280
    00: 54: 26.847 : en: 00: 54: 26.847
    01: 03: 54.706 : en: 01: 03: 54.706
    01: 12: 23.130 : en: 01: 12: 23.130
    01: 22: 20.936 : en: 01: 22: 20.936
    01: 30: 38.558 : en: 01: 30: 38.558
    01: 37: 28.384 : en: 01: 37: 28.384

    Скриншоты для ознакомления



    Все одноименные релизы в Клубе
    Время раздачи: 24/7 (до появления первых 3-5 скачавших)

    Онлайн видео Адская кухня



    Адская кухня / The Kitchen (2019) BDRip [H.264 / 1080p] [PR] торрент скачать бесплатно
    Рейтинг →
     (голосов: 1, оценка 5/5, голосовать можно 1 раз )

    Другие торренты по теме:

  • Адская кухня / Paradise Alley (1978) BDRip [H.264]
  • Адская кухня с Константином Ивлевым (2017) WEB-DLRip [H.264 / 720p-LQ] (сезон 1, выпуски 1-15 из 15 + Спецвыпуск)
  • Адская кухня / The Kitchen (2019) HDRip [MVO] [AD]
  • Адская кухня / The Kitchen (2019) BDRip [H.264 / 720p-LQ] [MVO] [AD]
  • Адская кухня / The Kitchen (2019) BDRip
  • Адская кухня / The Kitchen (2019) BDRemux [H.264 / 1080p]
  • Адская кухня / The Kitchen (2019) HDRip [H.265] [10-bit]
  • Адская кухня с Константином Ивлевым (2018) WEB-DLRip [H.264 / 720p-LQ] (сезон 2, выпуски 1-17 из 17) [PR]


    • Комментарии (0):

      Информация

      Информация

        Посетители, находящиеся в группе Гости, не могут оставлять комментарии в данной новости.

        ↓ Меню




        ↓ Опрос

        Вы добавили сайт в закладки?
        Да
        Нет


        Популярное