ВАЖНО! Сайт скоро заблокируют! Подписывайся на наш канал в Telegram https://t.me/torrentok и получи доступ к торрентам без ограничений!
.
Авторизация | Регистрация
bitok.xyz
Торрент скачать бесплатно Фильмы торрент скачать Мандалорец / The Mandalorian (2019) WEB-DLRip (сезон 1, серия 1 из 8) Lostfilm (обновляемая) торрент скачать бесплатно


    Мандалорец / The Mandalorian (2019) WEB-DLRip (сезон 1, серия 1 из 8) Lostfilm (обновляемая) торрент скачать бесплатно

    Дата: 17-11-2019, 05:00 | .torrent скачали: 11

    Мандалорец / The Mandalorian (2019) WEB-DLRip (сезон 1, серия 1 из 8) Lostfilm (обновляемая)Производство: США/Lucasfilm Ltd., Walt Disney Studios
    Жанр: фантастика, боевик, приключения
    Режиссер: Дебора Чоу, Рик Фамуйива, Дэйв Филони, Брайс Даллас Ховард, Тайка Вайтити

    Актеры
    Кайл Пацек, Педро Паскаль, Брендан Уэйн, Бернард Баллен, Александра Гилман, Luis Richard Gomez, Jamal Antar, Тейт Флетчер, Tony Taboada, Омид Абтахи

    Описание

    Одинокий мандалорец-наёмник живёт на краю обитаемой галактики, куда не дотягивается закон Новой Республики. Представитель некогда могучей расы благородных воинов теперь вынужден влачить жалкое существование среди отбросов общества.

    Релиз от: OlLanDGroup
    Продолжительность: ~00: 38: 00 серия
    Качество видео: WEB-DLRip
    Перевод: Многоголосый закадровый, профессиональный - Lostfilm
    Субтитры: Русские (Forced, Full), английские - отдельно
    Реклама: Отсутствует
    Видео: Xvid, 720x304, ~1812 kbps
    Аудио 1: AC3, 6 ch, 384 kbps — русский, многоголосый закадровый
    Аудио 2: AC3, 6 ch, 384 kbps — английский
    General
    Complete name : D: OlLanDGroupThe.Mandalorian.S01.WEB-DLRip.RUS.ENG.LF.DDP5.1-OlLanDGroupThe.Mandalorian.S01E01.WEB-DLRip.RUS.ENG.LF.DDP5.1-OlLanDGroup.avi
    Format : AVI
    Format/Info : Audio Video Interleave
    File size : 720 MiB
    Duration : 38 min 46 s
    Overall bit rate : 2 595 kb/s
    Writing application : VirtualDubMod 1.5.10.2 (build 2540/release)
    Writing library : VirtualDubMod build 2540/release
    Video
    ID : 0
    Format : MPEG-4 Visual
    Format profile : Advanced Simple@L5
    Format settings : BVOP1
    Format settings, BVOP : 1
    Format settings, QPel : No
    Format settings, GMC : No warppoints
    Format settings, Matrix : Default (MPEG)
    Codec ID : XVID
    Codec ID/Hint : XviD
    Duration : 38 min 46 s
    Bit rate : 1 813 kb/s
    Width : 720 pixels
    Height : 304 pixels
    Display aspect ratio : 2.35: 1
    Frame rate : 23.976 (24000/1001) FPS
    Color space : YUV
    Chroma subsampling : 4: 2: 0
    Bit depth : 8 bits
    Scan type : Progressive
    Compression mode : Lossy
    Bits/(Pixel*Frame) : 0.346
    Stream size : 503 MiB (70%)
    Writing library : XviD 73
    Audio #1
    ID : 1
    Format : AC-3
    Format/Info : Audio Coding 3
    Commercial name : Dolby Digital
    Codec ID : 2000
    Duration : 38 min 46 s
    Bit rate mode : Constant
    Bit rate : 384 kb/s
    Channel(s) : 6 channels
    Channel layout : L R C LFE Ls Rs
    Sampling rate : 48.0 kHz
    Frame rate : 31.250 FPS (1536 SPF)
    Bit depth : 16 bits
    Compression mode : Lossy
    Stream size : 106 MiB (15%)
    Alignment : Split accross interleaves
    Interleave, duration : 42 ms (1.00 video frame)
    Interleave, preload duration : 500 ms
    Service kind : Complete Main
    Audio #2
    ID : 2
    Format : AC-3
    Format/Info : Audio Coding 3
    Commercial name : Dolby Digital
    Codec ID : 2000
    Duration : 38 min 46 s
    Bit rate mode : Constant
    Bit rate : 384 kb/s
    Channel(s) : 6 channels
    Channel layout : L R C LFE Ls Rs
    Sampling rate : 48.0 kHz
    Frame rate : 31.250 FPS (1536 SPF)
    Bit depth : 16 bits
    Compression mode : Lossy
    Stream size : 106 MiB (15%)
    Alignment : Split accross interleaves
    Interleave, duration : 42 ms (1.00 video frame)
    Interleave, preload duration : 500 ms
    Service kind : Complete Main


    Онлайн видео Мандалорец



    Мандалорец / The Mandalorian (2019) WEB-DLRip (сезон 1, серия 1 из 8) Lostfilm (обновляемая) торрент скачать бесплатно
    Рейтинг →
     (голосов: 1, оценка 3/5, голосовать можно 1 раз )

    Другие торренты по теме:

  • Мандалорец / Mandalorian (2019) WEBRip [H.264 / 720p-LQ] (сезон 1, серии 1-2 из 8) (обновляемая) finargot
  • Мандалорец / Mandalorian (2019) WEBRip [H.264 / 1080p] (сезон 1, серии 1-3 из 8) finargot (обновляемая)
  • Мандалорец / Mandalorian (2019) WEB-DL [H.264 / 1080p] (сезон 1 серии 1-4 из 8) Flarrow Films (обновляемая)
  • Мандалорец / The Mandalorian (2019) WEBRip [H.264 / 1080p-LQ] (сезон 1, серия 1 из 8) (обновляемая) HDRezka Studio
  • Мандалорец / The Mandalorian (2019) WEBRip [H.264 / 1080p-LQ] (сезон 1, серия 1 из 8) (обновляемая) LakeFilms [AD]
  • Мандалорец / The Mandalorian (2019) WEBRip (сезон 1, серии 1-2 из 8) (обновляемая) HDRezka Studio
  • Мандалорец / The Mandalorian (2019) WEB-DLRip [H.264 / 720p-LQ] (сезон 1, серии 1 из 8) AMS (обновляемая) [AD] [PR]
  • Мандалорец / The Mandalorian (2019) WEB-DLRip [H.264 / 1080p-LQ] (сезон 1, серии 1 из 8) AMS (обновляемая) [AD]


    • Комментарии (0):

      Информация

      Информация

        Посетители, находящиеся в группе Гости, не могут оставлять комментарии в данной новости.

        ↓ Меню




        Популярное