.
Авторизация | Регистрация
bitok.xyz
Торрент скачать бесплатно Фильмы торрент скачать Адская кухня / The Kitchen (2019) BDRemux [H.264 / 1080p] торрент скачать бесплатно


    Адская кухня / The Kitchen (2019) BDRemux [H.264 / 1080p] торрент скачать бесплатно

    Дата: 18-11-2019, 05:00 | .torrent скачали: 1

    Адская кухня / The Kitchen (2019) BDRemux [H.264 / 1080p]Производство: США/BRON Studios, Creative Wealth Media Finance, DC Vertigo
    Жанр: Боевик, драма, криминал
    Режиссер: Андреа Берлофф
    Продюсер: Ричард Бренер, Джейсон Клот, Майкл Де Лука

    Актеры
    Мелисса Маккарти, Тиффани Хэддиш, Элизабет Мосс, Донал Глисон, Джеймс Бэдж Дэйл, Брайан Д’Арси Джеймс, Джереми Бобб, Марго Мартиндейл, Билл Кэмп, Коммон

    Описание
    История трёх домохозяек, проживающих в нью-йоркском районе Адская кухня, чьих мужей-мафиози ФБР посадило в тюрьму. Дело происходит в 1978 году, у этих дам нет ничего, кроме желания добиться своего, взяв дела ирландской мафии в свои руки. Оказывается, что и тут они чувствуют себя как рыба в воде во всём: от рэкета до устранения конкурентов… в буквальном смысле.

    Возраст: 16+ Зрителям, достигшим 16 лет
    Рейтинг MPAA: R Лицам до 17 обязательно присутствие взрослых
    Дата мировой премьеры: 8 августа 2019
    Цифровой релиз: 15 ноября 2019, Warner Bros.
    Релиз от: NNMClub
    Продолжительность: 01: 42: 38
    Качество видео: BDRemux 1080p
    Перевод: Профессиональный (дублированный)(iTunes)
    Субтитры: Русские (forced, full), Английские (full)
    Видео: AVC/H.264, 1920x1080, 36.4 Mbps, 23.976 fps
    Аудио 1 : AC-3, 2.0 ch, 192 Kbps | Русский
    Аудио 2 : DTS-HD MA, 6 ch, 2173 Kbps | Английский
    General
    Unique ID : 92463322751559940912406717800788794769 (0x458FC9C7C4C3A6FB37E7A54AC6981D91)
    Complete name : /Volumes/Promise 2/The.Kitchen.BDRemux.1080p.pk.mkv
    Format : Matroska
    Format version : Version 4
    File size : 27.8 GiB
    Duration : 1h 42mn
    Overall bit rate mode : Variable
    Overall bit rate : 38.8 Mbps
    Movie name : The Kitchen BDRemux 1080p pk
    Encoded date : UTC 2019-11-16 23: 15: 37
    Writing application : mkvmerge v40.0.0 (\'Old Town Road + Pony\') 64-bit
    Writing library : libebml v1.3.9 + libmatroska v1.5.2
    Video
    ID : 1
    Format : AVC
    Format/Info : Advanced Video Codec
    Format profile : High@L4.1
    Format settings : CABAC/4 Ref Frames
    Format settings, CABAC : Yes
    Format settings, ReFrames : 4 frames
    Codec ID : V_MPEG4/ISO/AVC
    Duration : 1h 42mn
    Bit rate mode : Variable
    Bit rate : 36.4 Mbps
    Maximum bit rate : 39.0 Mbps
    Width : 1 920 pixels
    Height : 1 080 pixels
    Display aspect ratio : 16: 9
    Frame rate mode : Constant
    Frame rate : 23.976 (24000/1001) fps
    Color space : YUV
    Chroma subsampling : 4: 2: 0
    Bit depth : 8 bits
    Scan type : Progressive
    Bits/(Pixel*Frame) : 0.733
    Stream size : 26.1 GiB (94%)
    Language : English
    Default : Yes
    Forced : No
    Audio #1
    ID : 2
    Format : AC-3
    Format/Info : Audio Coding 3
    Commercial name : Dolby Digital
    Codec ID : A_AC3
    Duration : 1h 42mn
    Bit rate mode : Constant
    Bit rate : 192 Kbps
    Channel(s) : 2 channels
    Channel layout : L R
    Sampling rate : 48.0 KHz
    Frame rate : 31.250 fps (1536 SPF)
    Compression mode : Lossy
    Stream size : 141 MiB (0%)
    Title : Russian Dub iTunes Stereo
    Language : Russian
    Service kind : Complete Main
    Default : Yes
    Forced : No
    Audio #2
    ID : 3
    Format : DTS XLL
    Format/Info : Digital Theater Systems
    Commercial name : DTS-HD Master Audio
    Codec ID : A_DTS
    Duration : 1h 42mn
    Bit rate mode : Variable
    Bit rate : 2 173 Kbps
    Channel(s) : 6 channels
    Channel layout : C L R Ls Rs LFE
    Sampling rate : 48.0 KHz
    Frame rate : 93.750 fps (512 SPF)
    Bit depth : 16 bits
    Compression mode : Lossless
    Stream size : 1.56 GiB (6%)
    Title : Original English
    Language : English
    Default : No
    Forced : No
    Text #1
    ID : 4
    Format : UTF-8
    Codec ID : S_TEXT/UTF8
    Codec ID/Info : UTF-8 Plain Text
    Duration : 1h 41mn
    Bit rate : 0 bps
    Count of elements : 7
    Stream size : 274 Bytes (0%)
    Title : Russian forced
    Language : Russian
    Default : Yes
    Forced : Yes
    Text #2
    ID : 5
    Format : UTF-8
    Codec ID : S_TEXT/UTF8
    Codec ID/Info : UTF-8 Plain Text
    Duration : 1h 41mn
    Bit rate : 82 bps
    Count of elements : 1461
    Stream size : 61.3 KiB (0%)
    Title : Russian full
    Language : Russian
    Default : No
    Forced : No
    Text #3
    ID : 6
    Format : UTF-8
    Codec ID : S_TEXT/UTF8
    Codec ID/Info : UTF-8 Plain Text
    Duration : 1h 36mn
    Bit rate : 55 bps
    Count of elements : 1444
    Stream size : 39.3 KiB (0%)
    Title : English full
    Language : English
    Default : No
    Forced : No
    Menu
    00: 00: 00.000 : en: Chapter 01
    00: 09: 26.274 : en: Chapter 02
    00: 17: 09.987 : en: Chapter 03
    00: 27: 10.837 : en: Chapter 04
    00: 37: 37.755 : en: Chapter 05
    00: 44: 59.279 : en: Chapter 06
    00: 54: 26.846 : en: Chapter 07
    01: 03: 54.705 : en: Chapter 08
    01: 12: 23.130 : en: Chapter 09
    01: 22: 20.936 : en: Chapter 10
    01: 30: 38.558 : en: Chapter 11
    01: 37: 28.384 : en: Chapter 12

    Скриншоты для ознакомления



    Все одноименные релизы в Клубе
    Время раздачи: 24/7 (круглосуточно) (до появления первых 3-5 скачавших)

    Онлайн видео Адская кухня



    Адская кухня / The Kitchen (2019) BDRemux [H.264 / 1080p] торрент скачать бесплатно
    Рейтинг →
     (голосов: 1, оценка 3/5, голосовать можно 1 раз )

    Другие торренты по теме:

  • Адская кухня / Paradise Alley (1978) BDRip [H.264]
  • Адская кухня с Константином Ивлевым (2017) WEB-DLRip [H.264 / 720p-LQ] (сезон 1, выпуски 1-15 из 15 + Спецвыпуск)
  • Адская кухня / The Kitchen (2019) HDRip [MVO] [AD]
  • Адская кухня / The Kitchen (2019) BDRip [H.264 / 720p-LQ] [MVO] [AD]
  • Адская кухня / The Kitchen (2019) BDRip [H.264 / 1080p] [PR]
  • Адская кухня / The Kitchen (2019) BDRip
  • Адская кухня / The Kitchen (2019) HDRip [H.265] [10-bit]
  • Адская кухня с Константином Ивлевым (2018) WEB-DLRip [H.264 / 720p-LQ] (сезон 2, выпуски 1-17 из 17) [PR]


    • Комментарии (0):

      Информация

      Информация

        Посетители, находящиеся в группе Гости, не могут оставлять комментарии в данной новости.

        ↓ Меню




        ↓ Опрос

        Вы добавили сайт в закладки?
        Да
        Нет


        Популярное