.
Авторизация | Регистрация
bitok.xyz
Торрент скачать бесплатно Фильмы торрент скачать Адская кухня / The Kitchen (2019) HDRip [H.265] [10-bit] торрент скачать бесплатно


    Адская кухня / The Kitchen (2019) HDRip [H.265] [10-bit] торрент скачать бесплатно

    Дата: 18-11-2019, 05:00 | .torrent скачали: 6

    Адская кухня / The Kitchen (2019) HDRip [H.265] [10-bit]Производство: США/BRON Studios, Creative Wealth Media Finance, DC Vertigo
    Жанр: боевик, драма, криминал
    Режиссер: Андреа Берлофф

    Актеры
    Мелисса Маккарти, Тиффани Хэддиш, Элизабет Мосс, Донал Глисон, Джеймс Бэдж Дэйл, Брайан Д\'Арси Джеймс, Джереми Бобб, Марго Мартиндейл, Билл Кэмп, Коммон, Э.Дж. Бонилья, Мик Вотфорд, Уэйн Дювалл, Памела Данлэп, Джон Шэриан

    Описание

    История трёх домохозяек, проживающих в нью-йоркском районе Адская кухня, чьих мужей-мафиози ФБР посадило в тюрьму. Дело происходит в 1978 году, у этих дам нет ничего, кроме желания добиться своего, взяв дела ирландской мафии в свои руки. Оказывается, что и тут они чувствуют себя как рыба в воде во всём: от рэкета до устранения конкурентов… в буквальном смысле.

    Возраст: 16+ (зрителям, достигшим 16 лет)
    Рейтинг MPAA: R (лицам до 17 лет обязательно присутствие взрослого)
    Дата мировой премьеры: 8 августа 2019
    Продолжительность: 01: 42: 38
    Качество видео: HDRip
    Перевод: Дублированный (iTunes)
    Субтитры: Русские (форсированные, полные), английские
    Видео: HEVC/H.265, 1024x426, 2024 Kbps
    Аудио 1: AC3, 2 ch, 160 Kbps | Русский
    Аудио 2: AC3, 2 ch, 160 Kbps | АнглийскийОбщее
    Уникальный идентификатор : 66846397148384066098657471145521566278 (0x324A25D5D8034B505DB0E5685869D246)
    Полное имя : The.Kitchen.2019.HDRip.10bit.HEVC.mkv
    Формат : Matroska
    Версия формата : Version 4/Version 2
    Размер файла : 1, 71 Гбайт
    Продолжительность : 1 ч. 42 м.
    Общий поток : 2391 Кбит/сек
    Название фильма : The Kitchen 2019
    Программа кодирования : XviD4PSP 8.0.91
    Библиотека кодирования : Lavf58.20.100
    ErrorDetectionType : Per level 1
    ENCODING_INFO : MATROSKA, WEBM MKV
    Видео
    Идентификатор : 1
    Формат : HEVC
    Формат/Информация : High Efficiency Video Coding
    Профиль формата : Main10@L4.1@High
    Идентификатор кодека : V_MPEGH/ISO/HEVC
    Продолжительность : 1 ч. 42 м.
    Битрейт : 2024 Кбит/сек
    Ширина : 1024 пикселя
    Высота : 426 пикселей
    Соотношение сторон : 2, 40: 1
    Режим частоты кадров : Постоянный
    Частота кадров : 23, 976 (24000/1001) кадра/сек
    Цветовое пространство : YUV
    Субдискретизация насыщенности : 4: 2: 0
    Битовая глубина : 10 бит
    Бит/(Пиксели*Кадры) : 0.193
    Размер потока : 1, 45 Гбайт (85%)
    Заголовок : playHD
    Язык : English
    Default : Да
    Forced : Нет
    Цветовой диапазон : Full
    ENCODING_INFO : H264 HEVC NVENC CQ 16 HQ
    Аудио #1
    Идентификатор : 2
    Формат : AC-3
    Формат/Информация : Audio Coding 3
    Параметр Endianness формата : Big
    Идентификатор кодека : A_AC3
    Продолжительность : 1 ч. 42 м.
    Вид битрейта : Постоянный
    Битрейт : 160 Кбит/сек
    Каналы : 2 канала
    Расположение каналов : Front: L R
    Частота : 48, 0 КГц
    Частота кадров : 31, 250 кадров/сек (1536 SPF)
    Битовая глубина : 16 бит
    Метод сжатия : С потерями
    Размер потока : 117 Мбайт (7%)
    Заголовок : iTunes
    Язык : Russian
    ServiceKind/String : Complete Main
    Default : Да
    Forced : Нет
    ENCODING_INFO : AC3 COPY Безопасное
    Аудио #2
    Идентификатор : 3
    Формат : AC-3
    Формат/Информация : Audio Coding 3
    Параметр Endianness формата : Big
    Идентификатор кодека : A_AC3
    Продолжительность : 1 ч. 42 м.
    Вид битрейта : Постоянный
    Битрейт : 160 Кбит/сек
    Каналы : 2 канала
    Расположение каналов : Front: L R
    Частота : 48, 0 КГц
    Частота кадров : 31, 250 кадров/сек (1536 SPF)
    Битовая глубина : 16 бит
    Метод сжатия : С потерями
    Размер потока : 117 Мбайт (7%)
    Заголовок : Original
    Язык : English
    ServiceKind/String : Complete Main
    Default : Нет
    Forced : Нет
    ENCODING_INFO : AC3 AC3 CBR 160kbps
    Текст #1
    Идентификатор : 4
    Формат : UTF-8
    Идентификатор кодека : S_TEXT/UTF8
    Идентификатор кодека/Информация : UTF-8 Plain Text
    Заголовок : Forced
    Язык : Russian
    Default : Да
    Forced : Да
    ENCODING_INFO : SUBRIP COPY Быстрое
    Текст #2
    Идентификатор : 5
    Формат : UTF-8
    Идентификатор кодека : S_TEXT/UTF8
    Идентификатор кодека/Информация : UTF-8 Plain Text
    Заголовок : Full
    Язык : Russian
    Default : Нет
    Forced : Нет
    ENCODING_INFO : SUBRIP COPY Быстрое
    Текст #3
    Идентификатор : 6
    Формат : UTF-8
    Идентификатор кодека : S_TEXT/UTF8
    Идентификатор кодека/Информация : UTF-8 Plain Text
    Язык : English
    Default : Нет
    Forced : Нет
    ENCODING_INFO : SUBRIP COPY Быстрое
    Меню
    00: 00: 00.000 : : 00: 00: 00.000
    00: 09: 26.274 : : 00: 09: 26.274
    00: 17: 09.987 : : 00: 17: 09.987
    00: 27: 10.838 : : 00: 27: 10.838
    00: 37: 37.755 : : 00: 37: 37.755
    00: 44: 59.280 : : 00: 44: 59.280
    00: 54: 26.847 : : 00: 54: 26.847
    01: 03: 54.706 : : 01: 03: 54.706
    01: 12: 23.130 : : 01: 12: 23.130
    01: 22: 20.936 : : 01: 22: 20.936
    01: 30: 38.558 : : 01: 30: 38.558
    01: 37: 28.384 : : 01: 37: 28.384

    Скриншоты для ознакомления



    Все одноименные релизы в Клубе
    Время раздачи: 24/7 (до появления первых 3-5 скачавших)

    Онлайн видео Адская кухня



    Адская кухня / The Kitchen (2019) HDRip [H.265] [10-bit] торрент скачать бесплатно
    Рейтинг →
     (голосов: 1, оценка 3/5, голосовать можно 1 раз )

    Другие торренты по теме:

  • Адская кухня / Paradise Alley (1978) BDRip [H.264]
  • Адская кухня с Константином Ивлевым (2017) WEB-DLRip [H.264 / 720p-LQ] (сезон 1, выпуски 1-15 из 15 + Спецвыпуск)
  • Адская кухня / The Kitchen (2019) HDRip [MVO] [AD]
  • Адская кухня / The Kitchen (2019) BDRip [H.264 / 720p-LQ] [MVO] [AD]
  • Адская кухня / The Kitchen (2019) BDRip [H.264 / 1080p] [PR]
  • Адская кухня / The Kitchen (2019) BDRip
  • Адская кухня / The Kitchen (2019) BDRemux [H.264 / 1080p]
  • Адская кухня с Константином Ивлевым (2018) WEB-DLRip [H.264 / 720p-LQ] (сезон 2, выпуски 1-17 из 17) [PR]


    • Комментарии (0):

      Информация

      Информация

        Посетители, находящиеся в группе Гости, не могут оставлять комментарии в данной новости.

        ↓ Меню




        ↓ Опрос

        Вы добавили сайт в закладки?
        Да
        Нет


        Популярное