ВАЖНО! Сайт скоро заблокируют! Подписывайся на наш канал в Telegram https://t.me/torrentok и получи доступ к торрентам без ограничений!
.
Авторизация | Регистрация
bitok.xyz
Торрент скачать бесплатно Фильмы торрент скачать Мандалорец / The Mandalorian (2019) WEB-DLRip [H.264 / 720p-LQ] (сезон 1, серии 1 из 8) AMS (обновляемая) [AD] [PR] торрент скачать бесплатно


    Мандалорец / The Mandalorian (2019) WEB-DLRip [H.264 / 720p-LQ] (сезон 1, серии 1 из 8) AMS (обновляемая) [AD] [PR] торрент скачать бесплатно

    Дата: 18-11-2019, 05:00 | .torrent скачали: 1

    Мандалорец / The Mandalorian (2019) WEB-DLRip [H.264 / 720p-LQ] (сезон 1, серии 1 из 8) AMS (обновляемая) [AD] [PR]Производство: США/Lucasfilm Ltd., Walt Disney Studios
    Жанр: фантастика, боевик, приключения
    Режиссер: Дебора Чоу, Рик Фамуйива, Дэйв Филони

    Актеры
    Педро Паскал, Кайл Пацек, Брендан Уэйн, Бернард Баллен, Александра Гилман, Тейт Флетчер, Luis Richard Gomez, Jamal Antar, Карл Уэзерс, Вернер Херцог и др.

    Описание

    Одинокий мандалорец-наёмник живёт на краю обитаемой галактики, куда не дотягивается закон Новой Республики. Представитель некогда могучей расы благородных воинов теперь вынужден влачить жалкое существование среди отбросов общества.

    Продолжительность: ~00: 35: 00 серия
    Качество видео: WEB-DLRip
    Перевод: Многоголосый профессиональный - AMS (Adiós Muchachos Studio)
    Субтитры: английские
    Реклама: присутствуют видео, аудио вставки рекламы
    Видео: AVC/H.264, 1280x720 (16: 9), ~4015 Kbps
    Аудио #1: AC3, 6 ch, 640 Kbps - русский
    Аудио #2: AC3, 6 ch, 640 Kbps - английский
    General
    Unique ID : 70935889946107226450171881542915246577 (0x355DC165B04F22041047F096E6F0C9F1)
    Complete name : /The.Mandalorian.S01E01.720p.WEB-DLRip.AMS
    Format : Matroska
    Format version : Version 4
    File size : 1.45 GiB
    Duration : 39mn 18s
    Overall bit rate mode : Variable
    Overall bit rate : 5 298 Kbps
    Movie name : The Mandalorian 1x01 - MVO AMS
    Encoded date : UTC 2019-11-16 17: 50: 22
    Writing application : mkvmerge v8.2.0 (\'World of Adventure\') 64bit
    Writing library : libebml v1.3.1 + libmatroska v1.4.2
    Video
    ID : 1
    Format : AVC
    Format/Info : Advanced Video Codec
    Format profile : Main@L3.1
    Format settings : CABAC/2 Ref Frames
    Format settings, CABAC : Yes
    Format settings, ReFrames : 2 frames
    Format settings, GOP : M=1, N=25
    Codec ID : V_MPEG4/ISO/AVC
    Duration : 39mn 18s
    Bit rate mode : Variable
    Bit rate : 4 015 Kbps
    Width : 1 280 pixels
    Height : 720 pixels
    Display aspect ratio : 16: 9
    Frame rate mode : Constant
    Frame rate : 23.976 (24000/1001) fps
    Color space : YUV
    Chroma subsampling : 4: 2: 0
    Bit depth : 8 bits
    Scan type : Progressive
    Bits/(Pixel*Frame) : 0.182
    Stream size : 1.10 GiB (76%)
    Title : The Mandalorian 1x01 - MVO AMS
    Language : English
    Default : Yes
    Forced : No
    Audio #1
    ID : 2
    Format : AC-3
    Format/Info : Audio Coding 3
    Commercial name : Dolby Digital
    Codec ID : A_AC3
    Duration : 39mn 18s
    Bit rate mode : Constant
    Bit rate : 640 Kbps
    Channel(s) : 6 channels
    Channel layout : L R C LFE Ls Rs
    Sampling rate : 48.0 KHz
    Frame rate : 31.250 fps (1536 SPF)
    Compression mode : Lossy
    Stream size : 180 MiB (12%)
    Title : MVO AMS
    Language : Russian
    Service kind : Complete Main
    Default : Yes
    Forced : No
    Audio #2
    ID : 3
    Format : AC-3
    Format/Info : Audio Coding 3
    Commercial name : Dolby Digital
    Codec ID : A_AC3
    Duration : 39mn 18s
    Bit rate mode : Constant
    Bit rate : 640 Kbps
    Channel(s) : 6 channels
    Channel layout : L R C LFE Ls Rs
    Sampling rate : 48.0 KHz
    Frame rate : 31.250 fps (1536 SPF)
    Compression mode : Lossy
    Stream size : 180 MiB (12%)
    Title : Original
    Language : English
    Service kind : Complete Main
    Default : No
    Forced : No
    Text #1
    ID : 4
    Format : UTF-8
    Codec ID : S_TEXT/UTF8
    Codec ID/Info : UTF-8 Plain Text
    Duration : 34mn 54s
    Bit rate : 29 bps
    Count of elements : 288
    Stream size : 7.63 KiB (0%)
    Title : Eng-Subs
    Language : English
    Default : No
    Forced : No
    Text #2
    ID : 5
    Format : UTF-8
    Codec ID : S_TEXT/UTF8
    Codec ID/Info : UTF-8 Plain Text
    Duration : 35mn 34s
    Bit rate : 41 bps
    Count of elements : 428
    Stream size : 10.9 KiB (0%)
    Title : Eng-Subs (SDH)
    Language : English
    Default : No
    Forced : No

    Скриншоты для ознакомления



    Все одноименные релизы в Клубе
    Время раздачи: Время раздачи: 24/7 (до появления первых 3-5 скачавших)

    Онлайн видео Мандалорец



    Мандалорец / The Mandalorian (2019) WEB-DLRip [H.264 / 720p-LQ] (сезон 1, серии 1 из 8) AMS (обновляемая) [AD] [PR] торрент скачать бесплатно
    Рейтинг →
     (голосов: 1, оценка 3/5, голосовать можно 1 раз )

    Другие торренты по теме:

  • Мандалорец / Mandalorian (2019) WEBRip [H.264 / 720p-LQ] (сезон 1, серии 1-2 из 8) (обновляемая) finargot
  • Мандалорец / Mandalorian (2019) WEBRip [H.264 / 1080p] (сезон 1, серии 1-3 из 8) finargot (обновляемая)
  • Мандалорец / Mandalorian (2019) WEB-DL [H.264 / 1080p] (сезон 1 серии 1-4 из 8) Flarrow Films (обновляемая)
  • Мандалорец / The Mandalorian (2019) WEBRip [H.264 / 1080p-LQ] (сезон 1, серия 1 из 8) (обновляемая) HDRezka Studio
  • Мандалорец / The Mandalorian (2019) WEBRip [H.264 / 1080p-LQ] (сезон 1, серия 1 из 8) (обновляемая) LakeFilms [AD]
  • Мандалорец / The Mandalorian (2019) WEBRip (сезон 1, серии 1-2 из 8) (обновляемая) HDRezka Studio
  • Мандалорец / The Mandalorian (2019) WEB-DLRip (сезон 1, серия 1 из 8) Lostfilm (обновляемая)
  • Мандалорец / The Mandalorian (2019) WEB-DLRip [H.264 / 1080p-LQ] (сезон 1, серии 1 из 8) AMS (обновляемая) [AD]


    • Комментарии (0):

      Информация

      Информация

        Посетители, находящиеся в группе Гости, не могут оставлять комментарии в данной новости.

        ↓ Меню




        Популярное