.
Авторизация | Регистрация
bitok.xyz
» » Ах, Специальный ударный корпус / Aa tokubetsu kougekitai / Ah, Special Attack Corps (1960) DVDRip [VO] торрент скачать бесплатно


    Ах, Специальный ударный корпус / Aa tokubetsu kougekitai / Ah, Special Attack Corps (1960) DVDRip [VO] торрент скачать бесплатно

    Дата: 20-11-2019, 05:00 | .torrent скачали: 3

    Ах, Специальный ударный корпус / Aa tokubetsu kougekitai / Ah, Special Attack Corps (1960) DVDRip [VO]Производство: Япония, Daiei, Daiei Tokyo
    Жанр: Боевик, военный, драма, история
    Режиссер: Ёсио Иноэ

    Актеры
    Кодзиро Хонго, Хитоми Нодзоэ, Хадзимэ Митамура, Кэйдзи Ногути, Таэко Ёсино, Хисако Такихана

    Описание

    В конце 1944-го года ситуация на фронте значительно ухудшилась, военно-техническому и количественному превосходству союзников истощённая Япония могла противопоставить лишь силу духа своих солдат. Понимая, что война уже проиграна, рассчитывалось, что ущерб от атак камикадзе, нанесённый американскому флоту, позволит Японии избежать безоговорочной капитуляции и заключить мир на относительно приемлемых условиях. Формируются эскадрильи лётчиков-камикадзе, более 2530 молодых людей из их состава погибли за свою страну. В этом цветном фильме 1960 года показаны четверо весёлых, молодых выпускников колледжа с многообещающим будущим, которые трагически погибают, будучи пилотами Специального ударного корпуса камикадзе.

    Релиз от: Rip by vitolinform
    Продолжительность: 01: 34: 34
    Качество видео: DVDRip
    Перевод: Одноголосый любительский (Владислав Данилов)
    Субтитры: Русские (idx/sub) - Отдельными файлами
    Видео: Xvid, 704x288, ~1844 Кbps
    Аудио 1: AC3, 2 ch, 192 Кbps | Русский, VO (Владислав Данилов)
    Аудио 2: AC3, 2 ch, 192 Кbps | ЯпонскийAh.specialnii.udarnii.Korpus.1960.DVDRipAh.specialnii.udarnii.Korpus.1960.DVDRip.avi
    Формат : AVI
    Формат/Информация : Audio Video Interleave
    Размер файла : 1, 48 Гбайт
    Продолжительность : 1 ч. 34 м.
    Общий поток : 2242 Кбит/сек
    Название фильма : Ах, специальный ударный корпус/Aa tokubetsu kougekitai (1960) DVDRip
    Режиссёр : Yoshio Inoue/Ёсио Иноэ
    Жанр : Боевик, военный, драма, истор
    Программа кодирования : VirtualDubMod 1.5.10.2 (build 2542/release)
    Формат оригинала/Имя : Художественный фильм
    Авторское право : Япония, Daiei, Daiei Tokyo
    Примечание : Rip by vitolinform
    Видео
    Идентификатор : 0
    Формат : MPEG-4 Visual
    Профиль формата : Advanced Simple@L5
    Настройки формата : BVOP2
    Параметр BVOP формата : 2
    Параметр QPel формата : Нет
    Параметр GMC формата : Без точки перехода
    Параметр матрицы формата : Default (MPEG)
    Идентификатор кодека : XVID
    Идентификатор кодека/Подсказка : XviD
    Продолжительность : 1 ч. 34 м.
    Битрейт : 1844 Кбит/сек
    Ширина : 704 пикселя
    Высота : 288 пикселей
    Соотношение сторон : 2, 40: 1
    Частота кадров : 23, 976 (24000/1001) кадра/сек
    Цветовое пространство : YUV
    Субдискретизация насыщенности : 4: 2: 0
    Битовая глубина : 8 бит
    Тип развёртки : Прогрессивная
    Метод сжатия : С потерями
    Бит/(Пиксели*Кадры) : 0.379
    Размер потока : 1, 22 Гбайт (82%)
    Библиотека кодирования : XviD 67
    Аудио #1
    Идентификатор : 1
    Формат : AC-3
    Формат/Информация : Audio Coding 3
    Коммерческое название : Dolby Digital
    Идентификатор кодека : 2000
    Продолжительность : 1 ч. 34 м.
    Вид битрейта : Постоянный
    Битрейт : 192 Кбит/сек
    Каналы : 2 канала
    ChannelLayout : L R
    Частота : 48, 0 КГц
    Частота кадров : 31, 250 кадров/сек (1536 SPF)
    Битовая глубина : 16 бит
    Метод сжатия : С потерями
    Размер потока : 130 Мбайт (9%)
    Выравнивание : Разделение по промежуткам
    Продолжительность промежутка : 42 мс. (1, 00 видеокадр)
    Время предзагрузки промежутка : 500 мс.
    Заголовок : Russian (VO В.Данилов)
    ServiceKind/String : Complete Main
    Аудио #2
    Идентификатор : 2
    Формат : AC-3
    Формат/Информация : Audio Coding 3
    Коммерческое название : Dolby Digital
    Идентификатор кодека : 2000
    Продолжительность : 1 ч. 34 м.
    Вид битрейта : Постоянный
    Битрейт : 192 Кбит/сек
    Каналы : 2 канала
    ChannelLayout : L R
    Частота : 48, 0 КГц
    Частота кадров : 31, 250 кадров/сек (1536 SPF)
    Битовая глубина : 16 бит
    Метод сжатия : С потерями
    Размер потока : 130 Мбайт (9%)
    Выравнивание : Разделение по промежуткам
    Продолжительность промежутка : 42 мс. (1, 00 видеокадр)
    Время предзагрузки промежутка : 500 мс.
    Заголовок : Japanese
    ServiceKind/String : Complete Main

    Онлайн видео Ах, Специальный ударный корпус



    Ах, Специальный ударный корпус/Aa tokubetsu kougekitai/Ah, Special Attack Corps (1960) DVDRip [VO]
    Рейтинг →
     (голосов: 1, оценка 5/5, голосовать можно 1 раз )

    Другие торренты по теме:

  • Специальный корреспондент. Опаленные перемирием (2014.09.26) SATRip
  • Специальный репортаж. Санкции. Политика против экономики (2014.09.23) SATRip
  • Специальный репортаж. Дым смерти (2014.09.30) SATRip
  • Специальный репортаж. Образ врага (2014.10.06) SATRip скачать через торрент бесплатно
  • Специальный корреспондент. Хаос на экспорт (2014.10.10) SATRip скачать через торрент бесплатно
  • Специальный репортаж. Деловая схватка (2014.10.13) SATRip
  • Специальный репортаж. Две пятерки Касатонова (2014.10.14) SATRip скачать через торрент бесплатно
  • Специальный корреспондент. Война и Мир (2014.10.17) SATRip скачать через торрент бесплатно


    • Комментарии (0):

      Информация

      Информация

        Посетители, находящиеся в группе Гости, не могут оставлять комментарии в данной новости.

        ↓ Меню




        ↓ Опрос

        Вы добавили сайт в закладки?
        Да
        Нет


        Популярное