.
Авторизация | Регистрация
bitok.xyz
» » Галактический полустанок (Галактическая магистраль) / Gyarakushi kaidou / Galaxy Turnpike (2015) HDRip [DVO] торрент скачать бесплатно


    Галактический полустанок (Галактическая магистраль) / Gyarakushi kaidou / Galaxy Turnpike (2015) HDRip [DVO] торрент скачать бесплатно

    Дата: 20-11-2019, 05:00 | .torrent скачали: 1

    Галактический полустанок (Галактическая магистраль) / Gyarakushi kaidou / Galaxy Turnpike (2015) HDRip [DVO]Производство: Япония, Cine Bazar, Fuji Television Network Inc., Toho Company
    Жанр: Фантастика, комедия
    Режиссер: Коки Митани

    Актеры
    Саяка Акимото, Кэндзи Анан, Кадзуюки Асано, Харука Аясэ, Ясунори Данта, Кэнъити Эндо, Кандзи Исимару, Дзэн Кадзихара, Синго Катори, Тосиюки Нисида

    Описание

    События разворачиваются в 2265 году в придорожном кафе. Вот только кафе это непростое. Находится оно у главной галактической магистрали между Землей и колонией Узошио.

    Релиз от: vitolinform
    Продолжительность: 01: 49: 22
    Качество видео: HDRip
    Перевод: Двуголосый любительский (Asian Miracle Group)
    Субтитры: русские (форсированные на песню), русские (ФСБ Birdman Fansubs), английские - отдельными файлами
    Видео: Xvid, 720x304, ~1592 Кbps
    Аудио 1: AC3, 1 ch, 192 Кbps | Русский (DVO)
    Аудио 2: AC3, 6 ch, 448 Кbps | Японский - отдельным файлом
    Galakticheskii.Polustanok.2015.HDRipGalakticheskii.Polustanok.2015.HDRip.avi
    Формат : AVI
    Формат/Информация : Audio Video Interleave
    Размер файла : 1, 37 Гбайт
    Продолжительность : 1 ч. 49 м.
    Общий поток : 1793 Кбит/сек
    Название фильма : Галактический полустанок/Gyarakushi kaidou (2015) HDRip
    Режиссёр : Коки Митани/Koki Mitani
    Жанр : Фантастика, комедия
    Программа кодирования : VirtualDubMod 1.5.10.2 (build 2542/release)
    Формат оригинала/Имя : Художественный фильм
    Авторское право : Япония, Cine Bazar, Fuji Television Network Inc., Toho Company
    Примечание : Rip by vitolinform
    Видео
    Идентификатор : 0
    Формат : MPEG-4 Visual
    Профиль формата : Advanced Simple@L5
    Настройки формата : BVOP2
    Параметр BVOP формата : 2
    Параметр QPel формата : Нет
    Параметр GMC формата : Без точки перехода
    Параметр матрицы формата : Default (MPEG)
    Идентификатор кодека : XVID
    Идентификатор кодека/Подсказка : XviD
    Продолжительность : 1 ч. 49 м.
    Битрейт : 1592 Кбит/сек
    Ширина : 720 пикселей
    Высота : 304 пикселя
    Соотношение сторон : 2, 35: 1
    Частота кадров : 23, 976 (24000/1001) кадра/сек
    Цветовое пространство : YUV
    Субдискретизация насыщенности : 4: 2: 0
    Битовая глубина : 8 бит
    Тип развёртки : Прогрессивная
    Метод сжатия : С потерями
    Бит/(Пиксели*Кадры) : 0.303
    Размер потока : 1, 22 Гбайт (89%)
    Библиотека кодирования : XviD 67
    Аудио
    Идентификатор : 1
    Формат : AC-3
    Формат/Информация : Audio Coding 3
    Коммерческое название : Dolby Digital
    Идентификатор кодека : 2000
    Продолжительность : 1 ч. 49 м.
    Вид битрейта : Постоянный
    Битрейт : 192 Кбит/сек
    Каналы : 1 канал
    ChannelLayout : C
    Частота : 48, 0 КГц
    Частота кадров : 31, 250 кадров/сек (1536 SPF)
    Битовая глубина : 16 бит
    Метод сжатия : С потерями
    Размер потока : 150 Мбайт (11%)
    Выравнивание : Разделение по промежуткам
    Продолжительность промежутка : 42 мс. (1, 00 видеокадр)
    Время предзагрузки промежутка : 500 мс.
    Заголовок : Russian (DVO Asian Miracle Group)
    ServiceKind/String : Complete Main
    =================================================
    Galakticheskii.Polustanok.2015.HDRip_jap.ac3
    Формат : AC-3
    Формат/Информация : Audio Coding 3
    Коммерческое название : Dolby Digital
    Размер файла : 350 Мбайт
    Продолжительность : 1 ч. 49 м.
    Режим общего битрейта : Постоянный
    Общий поток : 448 Кбит/сек
    Аудио
    Формат : AC-3
    Формат/Информация : Audio Coding 3
    Коммерческое название : Dolby Digital
    Продолжительность : 1 ч. 49 м.
    Вид битрейта : Постоянный
    Битрейт : 448 Кбит/сек
    Каналы : 6 каналов
    ChannelLayout : L R C LFE Ls Rs
    Частота : 48, 0 КГц
    Частота кадров : 31, 250 кадров/сек (1536 SPF)
    Битовая глубина : 16 бит
    Метод сжатия : С потерями
    Размер потока : 350 Мбайт (100%)
    ServiceKind/String : Complete Main


    Онлайн видео Галактический полустанок (Галактическая магистраль)



    Галактический полустанок (Галактическая магистраль)/Gyarakushi kaidou/Galaxy Turnpike (2015) HDRip [DVO]
    Рейтинг →
     (голосов: 1, оценка 5/5, голосовать можно 1 раз )

    Другие торренты по теме:

  • Вадим Попов | Шаман. Галактический протекторат (2015) [FB2]
  • Джек Вэнс | Галактический следопыт (2016) [FB2]
  • Ginga Tetsudou 999 / Ginga Tetsudo 999 / Galaxy Express 999 / Галактический экспресс 999 [1978, TV, 113] DVDRip 720p Hi10P raw


    • Комментарии (0):

      Информация

      Информация

        Посетители, находящиеся в группе Гости, не могут оставлять комментарии в данной новости.

        ↓ Меню




        ↓ Опрос

        Вы добавили сайт в закладки?
        Да
        Нет


        Популярное