.
Авторизация | Регистрация
bitok.xyz
» » Ты там будешь / Dangshin geogi iteojoorraeyo / Will You Be There (2016) HDRip [MVO] торрент скачать бесплатно


    Ты там будешь / Dangshin geogi iteojoorraeyo / Will You Be There (2016) HDRip [MVO] торрент скачать бесплатно

    Дата: 20-11-2019, 05:00 | .torrent скачали: 2

    Ты там будешь / Dangshin geogi iteojoorraeyo / Will You Be There (2016) HDRip [MVO]Производство: Южная Корея, Lotte Entertainment, Soo Film
    Жанр: Драма, фэнтези, мелодрама
    Режиссер: Хон Джи-ён
    Продюсер: Мин Гю-дон

    Актеры
    Ким Юн-сок, Пён Ё-хан, Чхэ Со-джин, Ким Сан-хо, Ан Сэ-ха, Чон Ин-ги, Пак Хе-су, Чан Гван, Ким Джи-ён, Пак Хи-бон

    Описание

    Известный хирург Су-хён узнает о том, что смертельно болен. Сожалений о прожитой жизни у доктора нет, он всегда помогал людям, но есть последнее желание — увидеть ещё раз любимую девушку, которая погибла 30 лет назад. В благодарность за помощь один старик даёт Су-хёну десять таблеток. Десять шансов вернуться в прошлое и встретить там ещё живую любовь всей жизни и самого себя.

    Релиз от: vitolinform
    Продолжительность: 01: 50: 52
    Качество видео: HDRip
    Перевод: Многоголосый любительский, двухголосый любительский
    Субтитры: Русские (ФСГ \'Cardinals\'), английские - отдельными файлами
    Видео: Xvid, 720x400, ~1504 Кbps
    Аудио 1: AC3, 2 ch, 192 Кbps | Русский (MVO, STEPonee)
    Аудио 2: AC3, 2 ch, 192 Кbps | Русский (DVO, STEPonee)
    Аудио 3: AC3, 6 ch, 448 Кbps | Корейский - отдельным файлом
    Tyi.tam.budesch.2016.HDRipTyi.tam.budesch.2016.HDRip.avi
    Формат : AVI
    Формат/Информация : Audio Video Interleave
    Размер файла : 1, 46 Гбайт
    Продолжительность : 1 ч. 50 м.
    Общий поток : 1902 Кбит/сек
    Название фильма : Ты там будешь?/Dangshin geogi iteojoorraeyo? (2016) HDRip
    Режиссёр : Хон Джи-ён/Hong Ji-yeong
    Жанр : Драма, фэнтези, мелодрама
    Программа кодирования : VirtualDubMod 1.5.10.2 (build 2542/release)
    Формат оригинала/Имя : Художественный фильм
    Авторское право : Южная Корея, Lotte Entertainment, Soo Film
    Примечание : Rip by vitolinform
    Видео
    Идентификатор : 0
    Формат : MPEG-4 Visual
    Профиль формата : Advanced Simple@L5
    Настройки формата : BVOP2
    Параметр BVOP формата : 2
    Параметр QPel формата : Нет
    Параметр GMC формата : Без точки перехода
    Параметр матрицы формата : Default (MPEG)
    Идентификатор кодека : XVID
    Идентификатор кодека/Подсказка : XviD
    Продолжительность : 1 ч. 50 м.
    Битрейт : 1504 Кбит/сек
    Ширина : 720 пикселей
    Высота : 400 пикселей
    Соотношение сторон : 16: 9
    Частота кадров : 24, 000 кадра/сек
    Цветовое пространство : YUV
    Субдискретизация насыщенности : 4: 2: 0
    Битовая глубина : 8 бит
    Тип развёртки : Прогрессивная
    Метод сжатия : С потерями
    Бит/(Пиксели*Кадры) : 0.218
    Размер потока : 1, 16 Гбайт (79%)
    Библиотека кодирования : XviD 67
    Аудио #1
    Идентификатор : 1
    Формат : AC-3
    Формат/Информация : Audio Coding 3
    Коммерческое название : Dolby Digital
    Идентификатор кодека : 2000
    Продолжительность : 1 ч. 50 м.
    Вид битрейта : Постоянный
    Битрейт : 192 Кбит/сек
    Каналы : 2 канала
    ChannelLayout : L R
    Частота : 48, 0 КГц
    Частота кадров : 31, 250 кадров/сек (1536 SPF)
    Битовая глубина : 16 бит
    Метод сжатия : С потерями
    Размер потока : 151 Мбайт (10%)
    Выравнивание : Разделение по промежуткам
    Продолжительность промежутка : 42 мс. (1, 00 видеокадр)
    Время предзагрузки промежутка : 500 мс.
    Заголовок : Russian (MVO STEPonee)
    ServiceKind/String : Complete Main
    Аудио #2
    Идентификатор : 2
    Формат : AC-3
    Формат/Информация : Audio Coding 3
    Коммерческое название : Dolby Digital
    Идентификатор кодека : 2000
    Продолжительность : 1 ч. 50 м.
    Вид битрейта : Постоянный
    Битрейт : 192 Кбит/сек
    Каналы : 2 канала
    ChannelLayout : L R
    Частота : 48, 0 КГц
    Частота кадров : 31, 250 кадров/сек (1536 SPF)
    Битовая глубина : 16 бит
    Метод сжатия : С потерями
    Размер потока : 151 Мбайт (10%)
    Выравнивание : Разделение по промежуткам
    Продолжительность промежутка : 42 мс. (1, 00 видеокадр)
    Время предзагрузки промежутка : 500 мс.
    Заголовок : Russian (DVO TeslaRec)
    ServiceKind/String : Complete Mai
    ================================================
    Tyi.tam.budesch.2016.HDRip_kor.ac3
    Формат : AC-3
    Формат/Информация : Audio Coding 3
    Коммерческое название : Dolby Digital
    Размер файла : 355 Мбайт
    Продолжительность : 1 ч. 50 м.
    Режим общего битрейта : Постоянный
    Общий поток : 448 Кбит/сек
    Аудио
    Формат : AC-3
    Формат/Информация : Audio Coding 3
    Коммерческое название : Dolby Digital
    Продолжительность : 1 ч. 50 м.
    Вид битрейта : Постоянный
    Битрейт : 448 Кбит/сек
    Каналы : 6 каналов
    ChannelLayout : L R C LFE Ls Rs
    Частота : 48, 0 КГц
    Частота кадров : 31, 250 кадров/сек (1536 SPF)
    Битовая глубина : 16 бит
    Метод сжатия : С потерями
    Размер потока : 355 Мбайт (100%)
    ServiceKind/String : Complete Main

    Онлайн видео Ты там будешь



    Ты там будешь/Dangshin geogi iteojoorraeyo/Will You Be There (2016) HDRip [MVO]
    Рейтинг →
     (голосов: 1, оценка 4/5, голосовать можно 1 раз )

    Другие торренты по теме:

  • Ты будешь моей (2013) HDTVRip
  • Ты будешь моей (2013) HDTVRip
  • В теме. Третьим будешь (2015) SATRip
  • День сенсационных материалов с Игорем Прокопенко. Сегодня ты будешь спать со мной (2016) SATRip
  • Все равно ты будешь мой (2015) SATRip [H.264] (серии 1-4 из 4)
  • Я думал, ты будешь всегда (2013) WEB-DL [H.264 / 1080р-LQ]
  • Михаил Ножкин, Василий Соловьев-Седой | Насильно мил не будешь (Шельменко-денщик) (1982) [MP3]
  • Олеся Куприн | Будешь торт (2018) [PDF]


    • Комментарии (0):

      Информация

      Информация

        Посетители, находящиеся в группе Гости, не могут оставлять комментарии в данной новости.

        ↓ Меню




        ↓ Опрос

        Вы добавили сайт в закладки?
        Да
        Нет


        Популярное