.
Авторизация | Регистрация
bitok.xyz
» » 1:54 / 1:54 (2016) HDRip [H.264] [MVO] торрент скачать бесплатно


    1:54 / 1:54 (2016) HDRip [H.264] [MVO] торрент скачать бесплатно

    Дата: 20-11-2019, 05:00 | .torrent скачали: 1

    1:54 / 1:54 (2016) HDRip [H.264] [MVO]Производство: Канада/Cinémaginaire Inc., Les Films Séville, Telefilm Canada
    Жанр: Драма, Спорт
    Режиссер: Ян Инглэнд

    Актеры
    Антуан-Оливье Пилон, Софи Нелисс, Lou-Pascal Tremblay, Давид Бутен, Патрис Годин, Роберт Нэйлор, Энтони Терриен, Гийом Готье, Irdens Exantus, Karl-Antoine Suprice

    Описание

    Тим — застенчивый 16-летний юноша, наделённый блестящим спортивным талантом. Он подаёт большие надежды, но находится под давлением, каждый день испытывая свои человеческие пределы и тем самым рискуя сломаться.

    Продолжительность: 01: 45: 49
    Качество видео: HDRip
    Перевод: Многоголосый, Двухголосый
    Субтитры: Русские, английские, французские
    Видео: AVC/H.264, 768x416, ~850 Kbps
    Аудио 1: AAC, 2 ch, 128 Kbps - Русский (MVO - Синема УС)
    Аудио 2: AAC, 2 ch, 128 Kbps - Русский (DVO - LakeFilms, отдельным файлом)
    Аудио 3: AAC, 2 ch, 128 Kbps - Французский (отдельным файлом)
    Общее
    Уникальный идентификатор : 95208750113587497116351535309518126524 (0x47A089CCCB0572F71A31912782C5BDBC)
    Полное имя : C: UsersDesktopКИНО1.54 (2016, Канада, драма-спорт, МКВ, 937МБ)1.541.54.mkv
    Формат : Matroska
    Версия формата : Version 4/Version 2
    Размер файла : 740 Мбайт
    Продолжительность : 1 ч. 45 м.
    Общий поток : 978 Кбит/сек
    Дата кодирования : UTC 2019-07-10 15: 22: 55
    Программа кодирования : mkvmerge v24.0.0 (\'Beyond The Pale\') 32-bit
    Библиотека кодирования : libebml v1.3.6 + libmatroska v1.4.9
    Видео
    Идентификатор : 1
    Формат : AVC
    Формат/Информация : Advanced Video Codec
    Профиль формата : High@L3.1
    Настройки формата : CABAC/7 Ref Frames
    Параметр CABAC формата : Да
    Параметр RefFrames формата : 7 кадров
    Идентификатор кодека : V_MPEG4/ISO/AVC
    Продолжительность : 1 ч. 45 м.
    Битрейт : 850 Кбит/сек
    Ширина : 768 пикселей
    Высота : 416 пикселей
    Соотношение сторон : 1, 85: 1
    Режим частоты кадров : Постоянный
    Частота кадров : 23, 976 (24000/1001) кадра/сек
    Цветовое пространство : YUV
    Субдискретизация насыщенности : 4: 2: 0
    Битовая глубина : 8 бит
    Тип развёртки : Прогрессивная
    Бит/(Пиксели*Кадры) : 0.111
    Размер потока : 641 Мбайт (87%)
    Библиотека кодирования : x264 core 155 r2901 7d0ff22
    Настройки программы : cabac=1/ref=7/deblock=1: 0: 0/analyse=0x3: 0x113/me=umh/subme=9/psy=1/psy_rd=1.00: 0.00/mixed_ref=1/me_range=24/chroma_me=1/trellis=1/8x8dct=1/cqm=0/deadzone=21, 11/fast_pskip=1/chroma_qp_offset=-2/threads=12/lookahead_threads=1/sliced_threads=0/nr=0/decimate=1/interlaced=0/bluray_compat=0/constrained_intra=0/bframes=7/b_pyramid=2/b_adapt=1/b_bias=0/direct=1/weightb=1/open_gop=0/weightp=2/keyint=240/keyint_min=23/scenecut=40/intra_refresh=0/rc_lookahead=40/rc=2pass/mbtree=1/bitrate=850/ratetol=1.0/qcomp=0.60/qpmin=0/qpmax=69/qpstep=4/cplxblur=20.0/qblur=0.5/ip_ratio=1.40/aq=1: 1.00
    Default : Да
    Forced : Нет
    Аудио
    Идентификатор : 2
    Формат : AAC
    Формат/Информация : Advanced Audio Codec
    Профиль формата : LC
    Идентификатор кодека : A_AAC-2
    Продолжительность : 1 ч. 45 м.
    Битрейт : 128 Кбит/сек
    Каналы : 2 канала
    Расположение каналов : Front: L R
    Частота : 48, 0 КГц
    Частота кадров : 46, 875 кадров/сек (1024 SPF)
    Метод сжатия : С потерями
    Размер потока : 96, 9 Мбайт (13%)
    Заголовок : Синема Ус
    Язык : Russian
    Default : Да
    Forced : Нет
    Текст #1
    Идентификатор : 3
    Формат : UTF-8
    Идентификатор кодека : S_TEXT/UTF8
    Идентификатор кодека/Информация : UTF-8 Plain Text
    Продолжительность : 1 ч. 42 м.
    Битрейт : 38 бит/сек
    ElementCount : 801
    Размер потока : 29, 1 Кбайт (0%)
    Язык : Russian
    Default : Нет
    Forced : Нет
    Текст #2
    Идентификатор : 4
    Формат : UTF-8
    Идентификатор кодека : S_TEXT/UTF8
    Идентификатор кодека/Информация : UTF-8 Plain Text
    Продолжительность : 1 ч. 42 м.
    Битрейт : 24 бит/сек
    ElementCount : 801
    Размер потока : 18, 7 Кбайт (0%)
    Заголовок : web
    Язык : English
    Default : Нет
    Forced : Нет
    Текст #3
    Идентификатор : 5
    Формат : UTF-8
    Идентификатор кодека : S_TEXT/UTF8
    Идентификатор кодека/Информация : UTF-8 Plain Text
    Продолжительность : 1 ч. 39 м.
    Битрейт : 25 бит/сек
    ElementCount : 854
    Размер потока : 18, 5 Кбайт (0%)
    Заголовок : bluray
    Язык : English
    Default : Нет
    Forced : Нет
    Текст #4
    Идентификатор : 6
    Формат : UTF-8
    Идентификатор кодека : S_TEXT/UTF8
    Идентификатор кодека/Информация : UTF-8 Plain Text
    Продолжительность : 1 ч. 42 м.
    Битрейт : 27 бит/сек
    ElementCount : 748
    Размер потока : 20, 5 Кбайт (0%)
    Заголовок : web
    Язык : French
    Default : Нет
    Forced : Нет
    Текст #5
    Идентификатор : 7
    Формат : UTF-8
    Идентификатор кодека : S_TEXT/UTF8
    Идентификатор кодека/Информация : UTF-8 Plain Text
    Продолжительность : 1 ч. 41 м.
    Битрейт : 48 бит/сек
    ElementCount : 1090
    Размер потока : 36, 1 Кбайт (0%)
    Заголовок : bluray
    Язык : French
    Default : Нет
    Forced : Нет
    Общее
    Полное имя : C: UsersDesktopКИНО1.54 (2016, Канада, драма-спорт, МКВ, 937МБ)1.541.54 (LakeFilms).aac
    Формат : ADTS
    Формат/Информация : Audio Data Transport Stream
    Размер файла : 98, 9 Мбайт
    Режим общего битрейта : Переменный
    Аудио
    Формат : AAC
    Формат/Информация : Advanced Audio Codec
    Версия формата : Version 4
    Профиль формата : LC
    Вид битрейта : Переменный
    Битрейт : 128 Кбит/сек
    Каналы : 2 канала
    Расположение каналов : Front: L R
    Частота : 48, 0 КГц
    Частота кадров : 46, 875 кадров/сек (1024 SPF)
    Метод сжатия : С потерями
    Размер потока : 98, 9 Мбайт (100%)
    Заголовок : LakeFilms
    Язык : Russian
    Общее
    Полное имя : C: UsersDesktopКИНО1.54 (2016, Канада, драма-спорт, МКВ, 937МБ)1.541.54 (Французский).aac
    Формат : ADTS
    Формат/Информация : Audio Data Transport Stream
    Размер файла : 98, 9 Мбайт
    Режим общего битрейта : Переменный
    Аудио
    Формат : AAC
    Формат/Информация : Advanced Audio Codec
    Версия формата : Version 4
    Профиль формата : LC
    Вид битрейта : Переменный
    Битрейт : 128 Кбит/сек
    Каналы : 2 канала
    Расположение каналов : Front: L R
    Частота : 48, 0 КГц
    Частота кадров : 46, 875 кадров/сек (1024 SPF)
    Метод сжатия : С потерями
    Размер потока : 98, 9 Мбайт (100%)
    Язык : French

    Скриншоты для ознакомления



    Все одноименные релизы в Клубе
    Время раздачи: большая часть суток (до появления первых 3-5 скачавших)

    1:54/1:54 (2016) HDRip [H.264] [MVO]
    Рейтинг →
     (голосов: 1, оценка 5/5, голосовать можно 1 раз )

    Другие торренты по теме:

  • Зов Космоса / The Call of the Cosmos (2018) HDRip [H.264 / 1080p-LQ] [MVO]
  • Мёртвые, проклятые и тьма / The Dead the Damned and the Darkness (2014) HDRip [VO]HDRip скачать через торрент бесплатно
  • Опасный Джек / Ужас в больнице / Hazard Jack (2014) HDRip [VO]
  • Плохие слова / Bad Words (2013) HDRip [Line]
  • Город грехов 2: Женщина, ради которой стоит убивать / Sin City: A Dame to Kill For (2014) HDRip
  • Черный дождь / Black Rain (1989) HDRip
  • Безумная свадьба / Quest-ce quon a fait au Bon Dieu (2014) HDRip [Line]
  • Куми-Куми / Qumi-Qumi (2012) HDRip [1080p] (Сезон 1, Серии 1-13 из 52) (Обновляемая)


    • Комментарии (0):

      Информация

      Информация

        Посетители, находящиеся в группе Гости, не могут оставлять комментарии в данной новости.

        ↓ Меню




        ↓ Опрос

        Вы добавили сайт в закладки?
        Да
        Нет


        Популярное