.
Авторизация | Регистрация
bitok.xyz
» » Человек в высоком замке / The Man in the High Castle (2019) WEB-DLRip (сезон 4, серии 1 из 10) LostFilm (обновляемая) торрент скачать бесплатно


    Человек в высоком замке / The Man in the High Castle (2019) WEB-DLRip (сезон 4, серии 1 из 10) LostFilm (обновляемая) торрент скачать бесплатно

    Дата: 20-11-2019, 05:00 | .torrent скачали: 2

    Человек в высоком замке / The Man in the High Castle (2019) WEB-DLRip (сезон 4, серии 1 из 10) LostFilm (обновляемая)Производство: США/Amazon Studios, Big Light Productions, Electric Shepherd Productionss
    Жанр: фантастика, триллер, драма
    Режиссер: Дэниэл Персивал, Джон Фоусет, Карин Кусама

    Актеры
    Руфус Сьюэлл, Алекса Давалос, Ди Джей Куоллс, Джоэль де ла Фуэнте, Кэри-Хироюки Тагава, Руперт Эванс, Люк Клеинтенк, Чела Хорсдэл, Грэйсин Шиней, Бреннан Браун и др.

    Описание

    Финальный сезон любимого сериала фантастического сериала снятого на основе знаменитого одноименного романа Филипа К. Дика, написанного в жанре альтернативной истории.
    Сериал рассказывает о событиях параллельной реальности, в которой победу во Второй мировой войне одержал не СССР, а Германия и Япония. Мир находится под тоталитарным гнетом держав-победительниц. Но находятся люди, которые в 1962 году создают тайное подполье и пытаются вести борьбу с установившимся режимом, организовывая подрывную деятельность.

    Продолжительность: ~00: 50: 00 серия
    Качество видео: WEB-DLRip
    Перевод: Многоголосый, профессиональный -LostFilm
    Субтитры: русские, английские, немецкие
    Видео: XviD, 720x400 (16: 9), ~1467 kbps
    Аудио 1: MP3, 2 ch, 128 kbps — русский
    Аудио 2: MP3, 2 ch, 128 kbps — английский
    Общее
    Полное имя : D: Человек в высоком замке (сезон любимого сериала 4) The Man in the High Castle (2019) WEB-DLRip - LostFilmThe.Man.In.The.High.Castle.S04E01.WEB-DLRip.Rus.Eng.DV.LostFilm.avi
    Формат : AVI
    Формат/Информация : Audio Video Interleave
    Размер файла : 718 Мбайт
    Продолжительность : 57 м. 47 с.
    Общий поток : 1737 Кбит/сек
    Название фильма : The.Man.In.The.High.Castle.S04E01.WEB-DLRip.Rus.Eng.DV.LostFilm/NNM-Club
    Программа кодирования : VirtualDubModRus 1.5.10.2 (build 2542/release)
    Библиотека кодирования : VirtualDubMod build 2542/release
    Видео
    Идентификатор : 0
    Формат : MPEG-4 Visual
    Профиль формата : Advanced Simple@L5
    Настройки формата : BVOP2
    Параметр BVOP формата : 2
    Параметр QPel формата : Нет
    Параметр GMC формата : Без точки перехода
    Параметр матрицы формата : Default (H.263)
    Идентификатор кодека : XVID
    Идентификатор кодека/Подсказка : XviD
    Продолжительность : 57 м. 47 с.
    Битрейт : 1467 Кбит/сек
    Ширина : 720 пикселей
    Высота : 400 пикселей
    Соотношение сторон : 16: 9
    Частота кадров : 23, 976 (24000/1001) кадра/сек
    Цветовое пространство : YUV
    Субдискретизация насыщенности : 4: 2: 0
    Битовая глубина : 8 бит
    Тип развёртки : Прогрессивная
    Метод сжатия : С потерями
    Бит/(Пиксели*Кадры) : 0.212
    Размер потока : 606 Мбайт (84%)
    Заголовок : Rip from DriverV for NNM-Club
    Библиотека кодирования : XviD 64
    Аудио #1
    Идентификатор : 1
    Формат : MPEG Audio
    Версия формата : Version 1
    Профиль формата : Layer 3
    Настройки формата : Joint stereo/MS Stereo
    Идентификатор кодека : 55
    Идентификатор кодека/Подсказка : MP3
    Продолжительность : 57 м. 47 с.
    Вид битрейта : Постоянный
    Битрейт : 128 Кбит/сек
    Каналы : 2 канала
    Частота : 48, 0 КГц
    Метод сжатия : С потерями
    Размер потока : 52, 9 Мбайт (7%)
    Выравнивание : Соединение по промежуткам
    Продолжительность промежутка : 42 мс. (1, 00 видеокадр)
    Время предзагрузки промежутка : 504 мс.
    Аудио #2
    Идентификатор : 2
    Формат : MPEG Audio
    Версия формата : Version 1
    Профиль формата : Layer 3
    Настройки формата : Joint stereo/MS Stereo
    Идентификатор кодека : 55
    Идентификатор кодека/Подсказка : MP3
    Продолжительность : 57 м. 47 с.
    Вид битрейта : Постоянный
    Битрейт : 128 Кбит/сек
    Каналы : 2 канала
    Частота : 48, 0 КГц
    Метод сжатия : С потерями
    Размер потока : 52, 9 Мбайт (7%)
    Выравнивание : Соединение по промежуткам
    Продолжительность промежутка : 42 мс. (1, 00 видеокадр)
    Время предзагрузки промежутка : 504 мс.


    Онлайн видео Человек в высоком замке



    Человек в высоком замке/The Man in the High Castle (2019) WEB-DLRip (сезон 4, серии 1 из 10) LostFilm (обновляемая)
    Рейтинг →
     (голосов: 1, оценка 5/5, голосовать можно 1 раз )

    Другие торренты по теме:

  • Человек в Высоком Замке / The Man in the High Castle (2015) WEB-DL [H.264 / 720p-LQ] (сезон 1, серия 1) [EN] (обновляемая) скачать через торрент бесплатно
  • Человек в высоком замке / The Man in the High Castle (2015) WEBRip [H.264 / 720p-LQ] (сезон 1, серия 1 из 12) Gears Media (обновляемая) скачать через торрент бесплатно
  • Человек в Высоком Замке / The Man in the High Castle (2015) WEB-DLRip [H.264] (сезон 1, серия 1 из 12) (Black Street Records) (обновляемая) скачать через торрент бесплатно
  • Человек в Высоком Замке / The Man in the High Castle (2015) WEB-DLRip [H.264 / 720p-LQ] (сезон 1, серия 1 из 12) (Black Street Records) (обновляемая) скачать через торрент бесплатно
  • Человек в высоком замке / The Man in the High Castle (2015) WEBRip (сезон 1, серии 1-2 из 12) OMSKBIRD records (обновляемая) скачать через торрент бесплатно
  • Человек в высоком замке / The Man in the High Castle (2015) WEBRip (сезон 1, серии 1 из 10) NewStudio (обновляемая) скачать через торрент бесплатно
  • Человек в высоком замке / The Man in the High Castle (2015) WEBRip [H.264 / 720p-LQ] (сезон 1, серии 1 из 10) NewStudio (обновляемая) скачать через торрент бесплатно
  • Человек в высоком замке / The Man in the High Castle (2015) WEBRip (сезон 1, серии 1 из 10) LostFilm (обновляемая) скачать через торрент бесплатно


    • Комментарии (0):

      Информация

      Информация

        Посетители, находящиеся в группе Гости, не могут оставлять комментарии в данной новости.

        ↓ Меню




        ↓ Опрос

        Вы добавили сайт в закладки?
        Да
        Нет


        Популярное