.
Авторизация | Регистрация
bitok.xyz
» » Текст (2019) WEBRip [H.264] торрент скачать бесплатно


    Текст (2019) WEBRip [H.264] торрент скачать бесплатно

    Дата: 1-12-2019, 05:00 | .torrent скачали: 0

    Текст (2019) WEBRip [H.264]Производство: Россия/Фонд развития современного кинематографа КИНОПРАЙМ, Централ Партнершип, START Studio
    Жанр: Драма, триллер
    Режиссер: Клим Шипенко

    Актеры
    Александр Петров, Кристина Асмус, Иван Янковский, Софья Озерова, Максим Виноградов, Виталий Хаев, Дмитрий Глуховский, Кирилл Нагиев, Елена Финогеева

    Описание

    Главный герой — 27-летний Илья Горюнов, семь лет отсидевший в тюрьме по ложному обвинению в распространении наркотиков. Когда Илья выходит на свободу, он понимает, что прежняя жизнь, по которой он тосковал, разрушена, и вернуться к ней он больше не сможет. Хотя он не собирался мстить человеку, который отправил его в тюрьму, другого выхода теперь нет. Встретившись лицом к лицу со своим обидчиком, Илья совершает необдуманный поступок, после которого главный герой получает доступ к смартфону Петра, а с ним и к жизни молодого человека — его фотографиям и видео, перепискам с родителями и девушкой Ниной, к странным, полным недомолвок и угроз переговорам с коллегами. На время Илья становится для всех Петром — через текст на экране телефона.

    Возраст: 18+ (зрителям, достигшим 18 лет. запрещено для детей)
    Дата мировой премьеры: 24 октября 2019
    Дата премьеры в России: 24 октября 2019

    Продолжительность: 02: 11: 30
    Качество видео: WEBRip (AVC)
    Перевод: Не требуется (русский)
    Субтитры: Отсутствуют
    Видео: AVC/H.264, 720x264, ~1295 Kbps
    Аудио: AC-3, 2 ch, 192 Kbps
    Общее
    Уникальный идентификатор : 239638972217649971954730812243215371948 (0xB448C988CC2DAF4315F74732FEE3CEAC)
    Полное имя : E: ТекстText.2019.WEBRip.mkv
    Формат : Matroska
    Версия формата : Version 4
    Размер файла : 1, 37 Гбайт
    Продолжительность : 2 ч. 11 м.
    Общий поток : 1490 Кбит/сек
    Дата кодирования : UTC 2019-11-30T12: 29: 52Z
    Программа кодирования : HandBrake 1.1.2 2018090500
    Библиотека кодирования : Lavf57.7.2
    Видео
    Идентификатор : 1
    Формат : AVC
    Формат/Информация : Advanced Video Codec
    Профиль формата : Main@L4
    Настройки формата : CABAC/5 Ref Frames
    Параметр CABAC формата : Да
    Параметр RefFrames формата : 5 кадров
    Идентификатор кодека : V_MPEG4/ISO/AVC
    Продолжительность : 2 ч. 11 м.
    Битрейт : 1295 Кбит/сек
    Ширина : 720 пикселей
    Высота : 264 пикселя
    Соотношение сторон : 2, 727
    Режим частоты кадров : Постоянный
    Частота кадров : 25, 000 кадров/сек
    Цветовое пространство : YUV
    Субдискретизация насыщенности : 4: 2: 0
    Битовая глубина : 8 бит
    Тип развёртки : Прогрессивная
    Бит/(Пиксели*Кадры) : 0.273
    Размер потока : 1, 16 Гбайт (85%)
    Default : Да
    Forced : Нет
    Цветовой диапазон : Limited
    Основные цвета : BT.709
    Характеристики трансфера : BT.709
    Коэффициенты матрицы : BT.709
    Аудио
    Идентификатор : 2
    Формат : AC-3
    Формат/Информация : Audio Coding 3
    Коммерческое название : Dolby Digital
    Идентификатор кодека : A_AC3
    Продолжительность : 2 ч. 11 м.
    Вид битрейта : Постоянный
    Битрейт : 192 Кбит/сек
    Каналы : 2 канала
    ChannelLayout : L R
    Частота : 48, 0 КГц
    Частота кадров : 31, 250 кадров/сек (1536 SPF)
    Битовая глубина : 16 бит
    Метод сжатия : С потерями
    Размер потока : 181 Мбайт (13%)
    Заголовок : Stereo
    Язык : English
    ServiceKind/String : Complete Main
    Default : Да
    Forced : Нет

    Скриншоты для ознакомления



    Все одноименные релизы в Клубе Время раздачи: 24/7 (до появления первых 3-5 скачавших)

    Онлайн видео Однажды в… Голливуде



    Текст (2019) WEBRip [H.264]
    Рейтинг →
     (голосов: 1, оценка 3/5, голосовать можно 1 раз )

    Другие торренты по теме:

  • Текст (2019) WEBRip [H.264] [MP4|1270x720]
  • Текст (2019) WEBRip


    • Комментарии (0):

      Информация

      Информация

        Посетители, находящиеся в группе Гости, не могут оставлять комментарии в данной новости.

        ↓ Меню




        ↓ Опрос

        Вы добавили сайт в закладки?
        Да
        Нет


        Популярное