Подписывайся на наш канал в Telegram https://t.me/torrentok и получи доступ к торрентам без ограничений!
.
Авторизация | Регистрация
bitok.xyz
Торрент скачать бесплатно Фильмы торрент скачать Мандалорец / Mandalorian (2019) WEB-DL [H.264 / 1080p] (сезон 1 серии 1-4 из 8) Flarrow Films (обновляемая) торрент скачать бесплатно


    Мандалорец / Mandalorian (2019) WEB-DL [H.264 / 1080p] (сезон 1 серии 1-4 из 8) Flarrow Films (обновляемая) торрент скачать бесплатно

    Дата: 12-12-2019, 05:00 | .torrent скачали: 7

    Мандалорец / Mandalorian (2019) WEB-DL [H.264 / 1080p] (сезон 1 серии 1-4 из 8) Flarrow Films (обновляемая)Производство: США/Lucasfilm Ltd., Walt Disney Studios
    Жанр: фантастика, боевик, приключения
    Режиссер: Дебора Чоу, Рик Фамуйива, Дэйв Филони

    Актеры
    Кайл Пацек, Педро Паскаль, Брендан Уэйн, Бернард Баллен, Александра Гилман, Тейт Флетчер, Омид Абтахи и др.

    Описание

    Одинокий мандалорец-наёмник живёт на краю обитаемой галактики, куда не дотягивается закон Новой Республики. Представитель некогда могучей расы благородных воинов теперь вынужден влачить жалкое существование среди отбросов общества.

    Дата мировой премьеры: 12.11.2019
    Продолжительность: ~00: 35: 00 серия
    Качество видео: WEB-DL 1080p
    Перевод: Дублированный (Flarrow Films)
    Субтитры: английские (инопланетная речь)
    Видео: AVC/H.264, 1920x804, ~9740 Kbps
    Аудио: AC3, 2 ch, 320 Kbps
    General
    Unique ID : 114203254407570866877792048545619574500 (0x55EABF2A6B13BA334A01E72B0B58FEE4)
    Complete name : G: MandalorianThe.Mandalorian.WEBRip.1080p.DUB.Flarrow.Films.S01.E01.mkv
    Format : Matroska
    Format version : Version 4
    File size : 2.72 GiB
    Duration : 38 min 47 s
    Overall bit rate mode : Variable
    Overall bit rate : 10.1 Mb/s
    Encoded date : UTC 2019-11-19 19: 53: 47
    Writing application : mkvmerge v32.0.0 (\'Astral Progressions\') 64-bit
    Writing library : libebml v1.3.7 + libmatroska v1.5.0
    Video
    ID : 1
    Format : AVC
    Format/Info : Advanced Video Codec
    Format profile : Main@L4.1
    Format settings : CABAC/2 Ref Frames
    Format settings, CABAC : Yes
    Format settings, Reference fra : 2 frames
    Format settings, GOP : M=3, N=23
    Codec ID : V_MPEG4/ISO/AVC
    Duration : 38 min 46 s
    Bit rate mode : Variable
    Bit rate : 9 738 kb/s
    Maximum bit rate : 12.0 Mb/s
    Width : 1 920 pixels
    Height : 804 pixels
    Display aspect ratio : 2.40: 1
    Frame rate mode : Constant
    Frame rate : 23.976 (24000/1001) FPS
    Color space : YUV
    Chroma subsampling : 4: 2: 0
    Bit depth : 8 bits
    Scan type : Progressive
    Bits/(Pixel*Frame) : 0.263
    Stream size : 2.64 GiB (97%)
    Language : English
    Default : Yes
    Forced : No
    Audio
    ID : 2
    Format : AC-3
    Format/Info : Audio Coding 3
    Commercial name : Dolby Digital
    Codec ID : A_AC3
    Duration : 38 min 47 s
    Bit rate mode : Constant
    Bit rate : 320 kb/s
    Channel(s) : 2 channels
    Channel layout : L R
    Sampling rate : 48.0 kHz
    Frame rate : 31.250 FPS (1536 SPF)
    Bit depth : 16 bits
    Compression mode : Lossy
    Stream size : 88.8 MiB (3%)
    Service kind : Complete Main
    Default : Yes
    Forced : No
    Text
    ID : 3
    Format : UTF-8
    Codec ID : S_TEXT/UTF8
    Codec ID/Info : UTF-8 Plain Text
    Duration : 35 min 3 s
    Bit rate : 52 b/s
    Count of elements : 301
    Stream size : 13.5 KiB (0%)
    Default : Yes
    Forced : No

    Скриншоты для ознакомления



    Все одноименные релизы в Клубе
    Время раздачи: 24/7 (круглосуточно) (до появления первых 3-5 скачавших)

    Онлайн видео Мандалорец



    Мандалорец / Mandalorian (2019) WEB-DL [H.264 / 1080p] (сезон 1 серии 1-4 из 8) Flarrow Films (обновляемая) торрент скачать бесплатно
    Рейтинг →
     (голосов: 1, оценка 5/5, голосовать можно 1 раз )

    Другие торренты по теме:

  • Мандалорец / Mandalorian (2019) WEBRip [H.264 / 720p-LQ] (сезон 1, серии 1-2 из 8) (обновляемая) finargot
  • Мандалорец / Mandalorian (2019) WEBRip [H.264 / 1080p] (сезон 1, серии 1-3 из 8) finargot (обновляемая)
  • Мандалорец / The Mandalorian (2019) WEBRip [H.264 / 1080p-LQ] (сезон 1, серия 1 из 8) (обновляемая) HDRezka Studio
  • Мандалорец / The Mandalorian (2019) WEBRip [H.264 / 1080p-LQ] (сезон 1, серия 1 из 8) (обновляемая) LakeFilms [AD]
  • Мандалорец / The Mandalorian (2019) WEBRip (сезон 1, серии 1-2 из 8) (обновляемая) HDRezka Studio
  • Мандалорец / The Mandalorian (2019) WEB-DLRip (сезон 1, серия 1 из 8) Lostfilm (обновляемая)
  • Мандалорец / The Mandalorian (2019) WEB-DLRip [H.264 / 720p-LQ] (сезон 1, серии 1 из 8) AMS (обновляемая) [AD] [PR]
  • Мандалорец / The Mandalorian (2019) WEB-DLRip [H.264 / 1080p-LQ] (сезон 1, серии 1 из 8) AMS (обновляемая) [AD]


    • Комментарии (0):

      Информация

      Информация

        Посетители, находящиеся в группе Гости, не могут оставлять комментарии в данной новости.

        ↓ Меню




        Популярное