.
Авторизация | Регистрация
bitok.xyz
Торрент скачать бесплатно Фильмы торрент скачать Того / Togo (2019) WEB-DLRip [MVO] [AD] торрент скачать бесплатно


    Того / Togo (2019) WEB-DLRip [MVO] [AD] торрент скачать бесплатно

    Дата: 22-12-2019, 05:00 | .torrent скачали: 0

    Того / Togo (2019) WEB-DLRip [MVO] [AD]Производство: США/The Walt Disney Company, Walt Disney Pictures
    Жанр: Драма
    Режиссер: Эриксон Кор

    Актеры
    Уиллем Дефо, Майкл Грейес, Джулианна Николсон, Кристофер Хейердал, Майкл Гэстон, Майкл МакЭлхаттон, Джейми МакШейн, Торбьорн Харр, Шон Бенсон, Стивен МакКарти

    Описание

    Пёс Того в 1928 году помог предотвратить эпидемию дифтерии в городе Ном, Аляска. В упряжке с другими ездовыми собаками Того, несмотря на страшные погодные условия, смог доставить в город посылку с антитоксином, остановившим распространение болезни.
    Основано на реальных событиях.

    Рейтинг MPAA: PG (рекомендуется присутствие родителей)
    Дата мировой премьеры: 20 декабря 2019
    Продолжительность: 01: 52: 08
    Качество видео: WEB-DLRip
    Перевод: Многоголосый закадровый, любительский (MUZOBOZ)
    Субтитры: Отсутствуют
    Реклама: Присутствует баннер.
    Видео: XviD, 720x352, ~2184 Kbps
    Аудио: AC-3, 2 ch, 384 Kbps
    Общее
    Полное имя : D: NNMТогоTogo.2019.WEB-DLRip.avi
    Формат : AVI
    Формат/Информация : Audio Video Interleave
    Профиль формата : OpenDML
    Размер файла : 2, 02 Гбайт
    Продолжительность : 1 ч. 52 м.
    Общий поток : 2579 Кбит/сек
    Видео
    Идентификатор : 0
    Формат : MPEG-4 Visual
    Профиль формата : Advanced Simple@L5
    Настройки формата : BVOP2/Custom Matrix
    Параметр BVOP формата : 2
    Параметр QPel формата : Нет
    Параметр GMC формата : Без точки перехода
    Параметр матрицы формата : Выборочная
    Идентификатор кодека : XVID
    Идентификатор кодека/Подсказка : XviD
    Продолжительность : 1 ч. 52 м.
    Битрейт : 2184 Кбит/сек
    Ширина : 720 пикселей
    Высота : 352 пикселя
    Соотношение сторон : 2, 045
    Частота кадров : 23, 976 (24000/1001) кадра/сек
    Цветовое пространство : YUV
    Субдискретизация насыщенности : 4: 2: 0
    Битовая глубина : 8 бит
    Тип развёртки : Прогрессивная
    Метод сжатия : С потерями
    Бит/(Пиксели*Кадры) : 0.359
    Размер потока : 1, 71 Гбайт (85%)
    Библиотека кодирования : XviD 1.2.1 (UTC 2008-12-04)
    Аудио
    Идентификатор : 1
    Формат : AC-3
    Формат/Информация : Audio Coding 3
    Коммерческое название : Dolby Digital
    Идентификатор кодека : 2000
    Продолжительность : 1 ч. 52 м.
    Вид битрейта : Постоянный
    Битрейт : 384 Кбит/сек
    Каналы : 2 канала
    ChannelLayout : M M
    Частота : 48, 0 КГц
    Частота кадров : 31, 250 кадров/сек (1536 SPF)
    Битовая глубина : 16 бит
    Метод сжатия : С потерями
    Размер потока : 308 Мбайт (15%)
    Выравнивание : Соединение по промежуткам
    Продолжительность промежутка : 32 мс. (0, 77 видеокадр)
    ServiceKind/String : Complete Main

    Скриншоты для ознакомления



    Все одноименные релизы в Клубе Время раздачи: 24/7 (до появления первых 3-5 скачавших)

    Онлайн видео Того



    Того / Togo (2019) WEB-DLRip [MVO] [AD] торрент скачать бесплатно
    Рейтинг →
     (голосов: 1, оценка 4/5, голосовать можно 1 раз )

    Другие торренты по теме:

  • Того / Togo (2019) WEB-DLRip [H.264 / 1080p-LQ] [MVO] [AD]
  • Того / Togo (2019) WEBRip [H.264 / 1080p-LQ] [DVO]
  • Того / Togo (2019) WEB-DL [H.264 / 720p-LQ] [DVO]
  • Того / Togo (2019) WEBRip
  • Того / Togo (2019) WEBRip [H.264] [DVO] [PR]
  • Того / Togo (2019) WEBRip [DVO]
  • Того / Togo (2019) WEB-DL [H.264 / 720p-LQ] [MVO]
  • Того / Togo (2019) WEB-DLRip [H.264] (MVO)


    • Комментарии (0):

      Информация

      Информация

        Посетители, находящиеся в группе Гости, не могут оставлять комментарии в данной новости.

        ↓ Меню




        ↓ Опрос

        Вы добавили сайт в закладки?
        Да
        Нет


        Популярное