ВАЖНО! Сайт скоро заблокируют! Подписывайся на наш канал в Telegram https://t.me/torrentok и получи доступ к торрентам без ограничений!
.
Авторизация | Регистрация
bitok.xyz
Торрент скачать бесплатно Фильмы торрент скачать Того / Togo (2019) WEBRip [H.264 / 1080p-LQ] [DVO] торрент скачать бесплатно


    Того / Togo (2019) WEBRip [H.264 / 1080p-LQ] [DVO] торрент скачать бесплатно

    Дата: 25-12-2019, 05:00 | .torrent скачали: 1

    Того / Togo (2019) WEBRip [H.264 / 1080p-LQ] [DVO]Производство: США/The Walt Disney Company, Walt Disney Pictures
    Жанр: Драма
    Режиссер: Эриксон Кор

    Актеры
    Уиллем Дефо, Джулианна Николсон, Кристофер Хейердал, Ричард Дормер, Эдриан Дорваль, Madeline Wickins, Майкл Грейес, Нив Нилсен, Николай Николаефф, Торбьорн Харр

    Описание

    Пёс Того в 1928 году помог предотвратить эпидемию дифтерии в городе Ном, Аляска. В упряжке с другими ездовыми собаками Того, несмотря на страшные погодные условия, смог доставить в город посылку с антитоксином, остановившим распространение болезни.

    Рейтинг MPAA: PG (рекомендуется присутствие родителей)
    Дата мировой премьеры: 20 декабря 2019
    Продолжительность: 01: 53: 01
    Качество видео: WEBRip
    Перевод: Двухголосый любительский (MUZOBOZ )
    Субтитры: Английские
    Видео: AVC/H.264, 1920x960, ~5255 Kbps
    Аудио 1: AC3, 6 ch, 448 Kbps - Русский (DVO, MUZOBOZ )
    Аудио 2: E-AC3+Atmos, 6 ch, 768 Kbps - АнглийскийОбщее
    Уникальный идентификатор : 210722590710054359821119676192251274876 (0x9E87B1DA875FB44C91E03DBECB49667C)
    Полное имя : Togo.2019.1080p.WEBRip.1080p.L2.mkv
    Формат : Matroska
    Версия формата : Version 4
    Размер файла : 5, 11 Гбайт
    Продолжительность : 1 ч. 53 м.
    Общий поток : 6473 Кбит/сек
    Дата кодирования : UTC 2019-12-24 15: 37: 19
    Программа кодирования : mkvmerge v8.3.0 (\'Over the Horizon\') 64bit
    Библиотека кодирования : libebml v1.3.1 + libmatroska v1.4.2
    Видео
    Идентификатор : 1
    Формат : AVC
    Формат/Информация : Advanced Video Codec
    Профиль формата : High@L4.1
    Настройки формата : CABAC/4 Ref Frames
    Параметр CABAC формата : Да
    Параметр RefFrames формата : 4 кадра
    Идентификатор кодека : V_MPEG4/ISO/AVC
    Продолжительность : 1 ч. 53 м.
    Битрейт : 5255 Кбит/сек
    Номинальный битрейт : 5560 Кбит/сек
    Ширина : 1920 пикселей
    Высота : 960 пикселей
    Соотношение сторон : 2, 000
    Режим частоты кадров : Постоянный
    Частота кадров : 23, 976 (24000/1001) кадра/сек
    Цветовое пространство : YUV
    Субдискретизация насыщенности : 4: 2: 0
    Битовая глубина : 8 бит
    Тип развёртки : Прогрессивная
    Бит/(Пиксели*Кадры) : 0.119
    Размер потока : 4, 15 Гбайт (81%)
    Библиотека кодирования : x264 core 142 r2479 dd79a61
    Настройки программы : cabac=1/ref=1/deblock=1: 0: 0/analyse=0x3: 0x3/me=dia/subme=1/psy=1/psy_rd=1.00: 0.00/mixed_ref=0/me_range=16/chroma_me=1/trellis=0/8x8dct=1/cqm=0/deadzone=21, 11/fast_pskip=1/chroma_qp_offset=0/threads=24/lookahead_threads=4/sliced_threads=0/nr=0/decimate=1/interlaced=0/bluray_compat=0/constrained_intra=0/bframes=3/b_pyramid=2/b_adapt=1/b_bias=0/direct=1/weightb=1/open_gop=0/weightp=1/keyint=240/keyint_min=24/scenecut=40/intra_refresh=0/rc_lookahead=0/rc=abr/mbtree=0/bitrate=5560/ratetol=1.0/qcomp=0.60/qpmin=0/qpmax=69/qpstep=4/vbv_maxrate=62500/vbv_bufsize=78125/nal_hrd=none/filler=0/ip_ratio=1.40/pb_ratio=1.30/aq=1: 1.00
    Default : Да
    Forced : Нет
    Цветовой диапазон : Limited
    Основные цвета : BT.709
    Характеристики трансфера : BT.709
    Коэффициенты матрицы : BT.709
    Аудио #1
    Идентификатор : 2
    Формат : AC-3
    Формат/Информация : Audio Coding 3
    Коммерческое название : Dolby Digital
    Идентификатор кодека : A_AC3
    Продолжительность : 1 ч. 53 м.
    Вид битрейта : Постоянный
    Битрейт : 448 Кбит/сек
    Каналы : 6 каналов
    Channel layout : L R C LFE Ls Rs
    Частота : 48, 0 КГц
    Частота кадров : 31, 250 кадров/сек (1536 SPF)
    Битовая глубина : 16 бит
    Метод сжатия : С потерями
    Задержка видео : -83 мс.
    Размер потока : 362 Мбайт (7%)
    Заголовок : MUZOBOZ
    Язык : Russian
    ServiceKind/String : Complete Main
    Default : Да
    Forced : Нет
    Аудио #2
    Идентификатор : 3
    Формат : E-AC-3 JOC
    Формат/Информация : Enhanced AC-3 with Joint Object Coding
    Коммерческое название : Dolby Digital Plus with Dolby Atmos
    Идентификатор кодека : A_EAC3
    Продолжительность : 1 ч. 53 м.
    Вид битрейта : Постоянный
    Битрейт : 768 Кбит/сек
    Каналы : 6 каналов
    Channel layout : L R C LFE Ls Rs
    Частота : 48, 0 КГц
    Частота кадров : 31, 250 кадров/сек (1536 SPF)
    Метод сжатия : С потерями
    Задержка видео : -83 мс.
    Размер потока : 621 Мбайт (12%)
    Язык : English
    ServiceKind/String : Complete Main
    Default : Нет
    Forced : Нет
    Complexity index : 16
    Number of dynamic objects : 15
    Bed channel count : 1 канал
    Bed channel configuration : LFE
    Текст
    Идентификатор : 4
    Формат : UTF-8
    Идентификатор кодека : S_TEXT/UTF8
    Идентификатор кодека/Информация : UTF-8 Plain Text
    Продолжительность : 1 ч. 41 м.
    Битрейт : 34 бит/сек
    ElementCount : 881
    Размер потока : 25, 3 Кбайт (0%)
    Язык : English
    Default : Нет
    Forced : Нет
    Скриншоты для ознакомления



    Все одноименные релизы в Клубе
    Время раздачи: 24/7 (до появления первых 3-5 скачавших)

    Онлайн видео Того



    Того / Togo (2019) WEBRip [H.264 / 1080p-LQ] [DVO] торрент скачать бесплатно
    Рейтинг →
     (голосов: 1, оценка 4/5, голосовать можно 1 раз )

    Другие торренты по теме:

  • Того / Togo (2019) WEB-DLRip [MVO] [AD]
  • Того / Togo (2019) WEB-DLRip [H.264 / 1080p-LQ] [MVO] [AD]
  • Того / Togo (2019) WEB-DL [H.264 / 720p-LQ] [DVO]
  • Того / Togo (2019) WEBRip
  • Того / Togo (2019) WEBRip [H.264] [DVO] [PR]
  • Того / Togo (2019) WEBRip [DVO]
  • Того / Togo (2019) WEB-DL [H.264 / 720p-LQ] [MVO]
  • Того / Togo (2019) WEB-DLRip [H.264] (MVO)


    • Комментарии (0):

      Информация

      Информация

        Посетители, находящиеся в группе Гости, не могут оставлять комментарии в данной новости.

        ↓ Меню




        Популярное