ВАЖНО! Сайт скоро заблокируют! Подписывайся на наш канал в Telegram https://t.me/torrentok и получи доступ к торрентам без ограничений!
.
Авторизация | Регистрация
bitok.xyz
Торрент скачать бесплатно Фильмы торрент скачать Того / Togo (2019) WEB-DL [H.264 / 720p-LQ] [DVO] торрент скачать бесплатно


    Того / Togo (2019) WEB-DL [H.264 / 720p-LQ] [DVO] торрент скачать бесплатно

    Дата: 25-12-2019, 05:00 | .torrent скачали: 0

    Того / Togo (2019) WEB-DL [H.264 / 720p-LQ] [DVO]Производство: США/The Walt Disney Company, Walt Disney Pictures
    Жанр: Драма
    Режиссер: Эриксон Кор

    Актеры
    Уиллем Дефо, Джулианна Николсон, Кристофер Хейердал, Ричард Дормер, Эдриан Дорваль, Madeline Wickins, Майкл Грейес, Нив Нилсен, Николай Николаефф, Торбьорн Харр

    Описание

    Пёс Того в 1928 году помог предотвратить эпидемию дифтерии в городе Ном, Аляска. В упряжке с другими ездовыми собаками Того, несмотря на страшные погодные условия, смог доставить в город посылку с антитоксином, остановившим распространение болезни. Основано на реальных событиях.

    Рейтинг MPAA: PG (рекомендуется присутствие родителей)
    Дата мировой премьеры: 20 декабря 2019
    Релиз от: mike7025
    Продолжительность: 01: 53: 01
    Качество видео: WEB-DL
    Перевод: Двухголосый любительский (MUZOBOZ )
    Субтитры: Английские
    Видео: AVC/H.264, 1280x720, ~4233 Kbps
    Аудио 1: AC3, 6 ch, 448 Kbps - Русский (DVO, MUZOBOZ )
    Аудио 2: E-AC3+Atmos, 6 ch, 768 Kbps - Английский
    General
    Unique ID : 53270402790648176613745722234108977184 (0x281381A2ABB2DFA46F2C4CCC99A12020)
    Complete name : G: Togo.2019.WEB-DL.720p.mkv
    Format : Matroska
    Format version : Version 4/Version 2
    File size : 4.30 GiB
    Duration : 1 h 53 min
    Overall bit rate mode : Variable
    Overall bit rate : 5 452 kb/s
    Encoded date : UTC 2019-12-24 02: 40: 45
    Writing application : mkvmerge v20.0.0 (\'I Am The Sun\') 64-bit
    Writing library : libebml v1.3.5 + libmatroska v1.4.8
    Video
    ID : 1
    Format : AVC
    Format/Info : Advanced Video Codec
    Format profile : High@L3.1
    Format settings : CABAC/4 Ref Frames
    Format settings, CABAC : Yes
    Format settings, RefFrames : 4 frames
    Codec ID : V_MPEG4/ISO/AVC
    Duration : 1 h 53 min
    Bit rate mode : Variable
    Bit rate : 4 233 kb/s
    Maximum bit rate : 6 375 kb/s
    Width : 1 280 pixels
    Height : 720 pixels
    Display aspect ratio : 16: 9
    Frame rate mode : Constant
    Frame rate : 23.976 (24000/1001) FPS
    Color space : YUV
    Chroma subsampling : 4: 2: 0
    Bit depth : 8 bits
    Scan type : Progressive
    Bits/(Pixel*Frame) : 0.192
    Stream size : 3.34 GiB (78%)
    Language : English
    Default : Yes
    Forced : No
    Color range : Limited
    Color primaries : BT.709
    Transfer characteristics : BT.709
    Matrix coefficients : BT.709
    Audio #1
    ID : 2
    Format : AC-3
    Format/Info : Audio Coding 3
    Codec ID : A_AC3
    Duration : 1 h 53 min
    Bit rate mode : Constant
    Bit rate : 448 kb/s
    Channel(s) : 6 channels
    Channel positions : Front: L C R, Side: L R, LFE
    Sampling rate : 48.0 kHz
    Frame rate : 31.250 FPS (1536 SPF)
    Bit depth : 16 bits
    Compression mode : Lossy
    Stream size : 362 MiB (8%)
    Title : MUZOBOZ
    Language : Russian
    Service kind : Complete Main
    Default : Yes
    Forced : No
    Audio #2
    ID : 3
    Format : E-AC-3
    Format/Info : Enhanced Audio Coding 3
    Format profile : E-AC-3+Atmos/E-AC-3
    Codec ID : A_EAC3
    Duration : 1 h 53 min
    Bit rate mode : Constant
    Bit rate : 768 kb/s
    Channel(s) : 15 objects/6 channels
    Channel positions : 15 objects/Front: L C R, Side: L R, LFE
    Sampling rate : 48.0 kHz
    Frame rate : 187.500 FPS (256 SPF)
    Compression mode : Lossy
    Stream size : 621 MiB (14%)
    Language : English
    Service kind : Complete Main
    Default : No
    Forced : No
    Text
    ID : 4
    Format : UTF-8
    Codec ID : S_TEXT/UTF8
    Codec ID/Info : UTF-8 Plain Text
    Duration : 1 h 41 min
    Bit rate : 34 b/s
    Count of elements : 881
    Stream size : 25.3 KiB (0%)
    Language : English
    Default : No
    Forced : No

    Скриншоты для ознакомления




    Все одноименные релизы в Клубе
    Время раздачи: 24/7 (до появления первых 3-5 скачавших)

    Онлайн видео Того



    Того / Togo (2019) WEB-DL [H.264 / 720p-LQ] [DVO] торрент скачать бесплатно
    Рейтинг →
     (голосов: 1, оценка 3/5, голосовать можно 1 раз )

    Другие торренты по теме:

  • Того / Togo (2019) WEB-DLRip [MVO] [AD]
  • Того / Togo (2019) WEB-DLRip [H.264 / 1080p-LQ] [MVO] [AD]
  • Того / Togo (2019) WEBRip [H.264 / 1080p-LQ] [DVO]
  • Того / Togo (2019) WEBRip
  • Того / Togo (2019) WEBRip [H.264] [DVO] [PR]
  • Того / Togo (2019) WEBRip [DVO]
  • Того / Togo (2019) WEB-DL [H.264 / 720p-LQ] [MVO]
  • Того / Togo (2019) WEB-DLRip [H.264] (MVO)


    • Комментарии (0):

      Информация

      Информация

        Посетители, находящиеся в группе Гости, не могут оставлять комментарии в данной новости.

        ↓ Меню




        Популярное