.
Авторизация | Регистрация
bitok.xyz
» » Три секунды / The Informer (2019) WEB-DLRip торрент скачать бесплатно


    Три секунды / The Informer (2019) WEB-DLRip торрент скачать бесплатно

    Дата: 25-12-2019, 05:00 | .torrent скачали: 0

    Три секунды / The Informer (2019) WEB-DLRipПроизводство: Великобритания/thefyzz, Thunder Road Pictures, Imagination Park Entertainment
    Жанр: Триллер, криминал, боевик
    Режиссер: Андреа Ди Стефано

    Актеры
    Ана де Армас, Розамунд Пайк, Юэль Киннаман, Клайв Оуэн, Коммон, Рут Брэдли, Сэм Спруэлл, Мартин МакКанн, Артуро Кастро, Насир Джама, Дженна Уиллис

    Описание

    Три секунды — время полета пули, выпущенной из снайперской винтовки с расстояния 1 500 метров. Именно столько времени остается, чтобы принять решение информатору Федерального Бюро Расследований, оказавшемуся в смертельной ловушке между мафией, полицией и ФБР. На кону — его семья, свобода, жизнь.

    Возраст: 18+ (зрителям, достигшим 18 лет. запрещено для детей)
    Дата мировой премьеры: 31 января 2019
    Дата российской премьеры: 24 октября 2019
    Продолжительность: 01: 53: 25
    Качество видео: WEB-DLRip
    Перевод: Дублированный (Online Cin.)
    Субтитры: Английские (отдельно)
    Видео: XviD, 720x304, ~2092 Kbps
    Аудио #1: AC3, 2 ch, 192 Kbps - Русский
    Аудио #2: AC3, 6 ch, 448 Kbps - Английский
    Общее
    Полное имя : D: NNMТри секундыThe.Informer.2019.WEB-DLRipThe.Informer.2019.WEB-DLRip.avi
    Формат : AVI
    Формат/Информация : Audio Video Interleave
    Профиль формата : OpenDML
    Размер файла : 2, 18 Гбайт
    Продолжительность : 1 ч. 53 м.
    Общий поток : 2750 Кбит/сек
    Название фильма : Три секунды_2019_WEB-DLRip
    Программа кодирования : VirtualDubMod 1.5.10.3 |www.virtualdub-fr.org|| (build 2550/release)
    Авторское право : порошков
    Видео
    Идентификатор : 0
    Формат : MPEG-4 Visual
    Профиль формата : Advanced Simple@L5
    Настройки формата : BVOP1/Custom Matrix
    Параметр BVOP формата : 1
    Параметр QPel формата : Нет
    Параметр GMC формата : Без точки перехода
    Параметр матрицы формата : Выборочная
    Идентификатор кодека : XVID
    Идентификатор кодека/Подсказка : XviD
    Продолжительность : 1 ч. 53 м.
    Битрейт : 2092 Кбит/сек
    Ширина : 720 пикселей
    Высота : 304 пикселя
    Соотношение сторон : 2, 35: 1
    Частота кадров : 23, 976 (24000/1001) кадра/сек
    Цветовое пространство : YUV
    Субдискретизация насыщенности : 4: 2: 0
    Битовая глубина : 8 бит
    Тип развёртки : Прогрессивная
    Метод сжатия : С потерями
    Бит/(Пиксели*Кадры) : 0.399
    Размер потока : 1, 66 Гбайт (76%)
    Библиотека кодирования : XviD 73
    Аудио #1
    Идентификатор : 1
    Формат : AC-3
    Формат/Информация : Audio Coding 3
    Коммерческое название : Dolby Digital
    Идентификатор кодека : 2000
    Продолжительность : 1 ч. 53 м.
    Вид битрейта : Постоянный
    Битрейт : 192 Кбит/сек
    Каналы : 2 канала
    ChannelLayout : L R
    Частота : 48, 0 КГц
    Частота кадров : 31, 250 кадров/сек (1536 SPF)
    Метод сжатия : С потерями
    Размер потока : 156 Мбайт (7%)
    Выравнивание : Разделение по промежуткам
    Продолжительность промежутка : 42 мс. (1, 00 видеокадр)
    Время предзагрузки промежутка : 500 мс.
    Заголовок : rus
    ServiceKind/String : Complete Main
    Аудио #2
    Идентификатор : 2
    Формат : AC-3
    Формат/Информация : Audio Coding 3
    Коммерческое название : Dolby Digital
    Идентификатор кодека : 2000
    Продолжительность : 1 ч. 53 м.
    Вид битрейта : Постоянный
    Битрейт : 448 Кбит/сек
    Каналы : 6 каналов
    ChannelLayout : L R C LFE Ls Rs
    Частота : 48, 0 КГц
    Частота кадров : 31, 250 кадров/сек (1536 SPF)
    Метод сжатия : С потерями
    Размер потока : 363 Мбайт (16%)
    Выравнивание : Разделение по промежуткам
    Продолжительность промежутка : 42 мс. (1, 00 видеокадр)
    Время предзагрузки промежутка : 500 мс.
    Заголовок : eng
    ServiceKind/String : Complete Main

    Скриншоты для ознакомления



    Все одноименные релизы в Клубе
    Время раздачи: 24/7/365(6) (до появления первых 3-5 скачавших)

    Онлайн видео Три секунды



    Три секунды/The Informer (2019) WEB-DLRip
    Рейтинг →
     (голосов: 1, оценка 4/5, голосовать можно 1 раз )

    Другие торренты по теме:

  • Три секунды / The Informer (2019) BDRip [H.264 / 720p]
  • Три секунды / The Informer (2019) WEB-DL [H.264 / 720p]
  • Три секунды / The Informer (2019) WEB-DL [H.264 / 1080p]
  • Три секунды / The Informer (2019) WEBRip [H.264 / 720p-LQ]
  • Три секунды / The Informer (2019) WEB-DLRip
  • Три секунды / The Informer (2019) WEB-DLRip [H.264] [Online]
  • Три секунды / The Informer (2019) WEB-DL [720p] ATV
  • Три секунды / The Informer (2019) WEB-DL [1080p] ATV


    • Комментарии (0):

      Информация

      Информация

        Посетители, находящиеся в группе Гости, не могут оставлять комментарии в данной новости.

        ↓ Меню




        ↓ Опрос

        Вы добавили сайт в закладки?
        Да
        Нет


        Популярное