.
Авторизация | Регистрация
bitok.xyz
» » Эльдорадо / El Dorado (1967) BDRip [H.264 / 1080p] торрент скачать бесплатно


    Эльдорадо / El Dorado (1967) BDRip [H.264 / 1080p] торрент скачать бесплатно

    Дата: 25-12-2019, 05:00 | .torrent скачали: 1

    Эльдорадо / El Dorado (1967) BDRip [H.264 / 1080p]Производство: США/Paramount Pictures, Laurel Productions
    Жанр: драма, мелодрама, вестерн
    Режиссер: Ховард Хоукс

    Актеры
    Джон Уэйн, Роберт Митчем, Джеймс Каан, Шарлин Холт, Пол Фикс, Артур Ханникат, Мишель Кэри, Р.Г. Армстронг, Эдвард Эснер, Кристофер Джордж

    Описание

    Влиятельный землевладелец городка Эльдорадо Барт Джейсон нанимает известного стрелка Коула Торнтона для решения земельного вопроса с семьей МакДоналдов. Шерифом Эльдорадо оказался старый друг Коула Джей Пи Хара.
    Отказавшись от предложения Джейсона, Торнтон встает на сторону шерифа и принимает решение защитить МакДоналдов. В свою очередь Барт набирает банду головорезов, чтобы силой завладеть землей.

    Возраст: 12+ (зрителям, достигшим 12 лет)
    Продолжительность: 02: 06: 32
    Качество видео: BDRip
    Перевод: Многоголосый профессиональный
    Субтитры: русские, английские
    Видео: AVC/H.264, 1920x1080, ~14.5 Mbps
    Аудио 1: AC3, 2 ch, 192 kbps, Русский (MVO SomeWax)
    Аудио 2: AC3, 2 ch, 224 kbps, Английский
    Общее
    Уникальный идентификатор : 229139553770652737752530699019000650264 (0xAC62AC3CF387F4328F1EAD7DEA8E9A18)
    Полное имя : D: FILMSZALIVEl.Dorado.1966.BDRip.1080p.mkv
    Формат : Matroska
    Версия формата : Version 4
    Размер файла : 13, 2 Гбайт
    Продолжительность : 2 ч. 6 м.
    Общий поток : 14, 9 Мбит/сек
    Дата кодирования : UTC 2014-10-04 07: 51: 29
    Программа кодирования : mkvmerge v6.9.1 (\'Blue Panther\') 64bit built on Apr 18 2014 18: 23: 38
    Библиотека кодирования : libebml v1.3.0 + libmatroska v1.4.1
    Видео
    Идентификатор : 1
    Формат : AVC
    Формат/Информация : Advanced Video Codec
    Профиль формата : High@L4.1
    Настройки формата : CABAC/4 Ref Frames
    Параметр CABAC формата : Да
    Параметр RefFrames формата : 4 кадра
    Идентификатор кодека : V_MPEG4/ISO/AVC
    Продолжительность : 2 ч. 6 м.
    Битрейт : 14, 5 Мбит/сек
    Ширина : 1920 пикселей
    Высота : 1080 пикселей
    Соотношение сторон : 16: 9
    Режим частоты кадров : Постоянный
    Частота кадров : 23, 976 (24000/1001) кадра/сек
    Цветовое пространство : YUV
    Субдискретизация насыщенности : 4: 2: 0
    Битовая глубина : 8 бит
    Тип развёртки : Прогрессивная
    Бит/(Пиксели*Кадры) : 0.292
    Размер потока : 12, 6 Гбайт (95%)
    Заголовок : MPEG-4AVC@High Profile L4.1, 24/1.001 fps @ 14500 kbps
    Библиотека кодирования : x264 core 142 r2431 ac76440
    Настройки программы : cabac=1/ref=4/deblock=1: -3: -3/analyse=0x3: 0x133/me=umh/subme=11/psy=1/psy_rd=1.00: 0.00/mixed_ref=1/me_range=32/chroma_me=1/trellis=2/8x8dct=1/cqm=0/deadzone=21, 11/fast_pskip=0/chroma_qp_offset=-2/threads=24/lookahead_threads=2/sliced_threads=0/nr=0/decimate=0/interlaced=0/bluray_compat=0/constrained_intra=0/bframes=6/b_pyramid=2/b_adapt=2/b_bias=0/direct=3/weightb=1/open_gop=0/weightp=2/keyint=240/keyint_min=23/scenecut=40/intra_refresh=0/rc_lookahead=60/rc=2pass/mbtree=1/bitrate=14500/ratetol=1.0/qcomp=0.60/qpmin=0/qpmax=69/qpstep=4/cplxblur=20.0/qblur=0.5/vbv_maxrate=45000/vbv_bufsize=45000/nal_hrd=none/filler=0/ip_ratio=1.40/aq=1: 0.60
    Язык : English
    Default : Да
    Forced : Нет
    Statistics Tags Issue : mkvmerge v7.0.0 (\'Where We Going\') 64bit built on Jun 9 2014 15: 16: 27 2014-07-17 05: 55: 45/mkvmerge v6.9.1 (\'Blue Panther\') 64bit built on Apr 18 2014 18: 23: 38 2014-10-04 07: 51: 29
    FromStats_BitRate : 14500417
    FromStats_Duration : 02: 06: 31.584000000
    FromStats_FrameCount : 182016
    FromStats_StreamSize : 13760142113
    Аудио #1
    Идентификатор : 2
    Формат : AC-3
    Формат/Информация : Audio Coding 3
    Коммерческое название : Dolby Digital
    Идентификатор кодека : A_AC3
    Продолжительность : 2 ч. 6 м.
    Вид битрейта : Постоянный
    Битрейт : 192 Кбит/сек
    Каналы : 2 канала
    ChannelLayout : L R
    Частота : 48, 0 КГц
    Частота кадров : 31, 250 кадров/сек (1536 SPF)
    Метод сжатия : С потерями
    Размер потока : 174 Мбайт (1%)
    Заголовок : MVO SomeWax
    Язык : Russian
    ServiceKind/String : Complete Main
    Default : Да
    Forced : Нет
    Аудио #2
    Идентификатор : 3
    Формат : AC-3
    Формат/Информация : Audio Coding 3
    Коммерческое название : Dolby Digital
    Идентификатор кодека : A_AC3
    Продолжительность : 2 ч. 6 м.
    Вид битрейта : Постоянный
    Битрейт : 224 Кбит/сек
    Каналы : 2 канала
    ChannelLayout : L R
    Частота : 48, 0 КГц
    Частота кадров : 31, 250 кадров/сек (1536 SPF)
    Метод сжатия : С потерями
    Размер потока : 203 Мбайт (2%)
    Заголовок : English Dolby Digital Audio 2.0 @ 224 kbps
    Язык : English
    ServiceKind/String : Complete Main
    Default : Нет
    Forced : Нет
    Statistics Tags Issue : mkvmerge v7.0.0 (\'Where We Going\') 64bit built on Jun 9 2014 15: 16: 27 2014-07-17 05: 55: 45/mkvmerge v6.9.1 (\'Blue Panther\') 64bit built on Apr 18 2014 18: 23: 38 2014-10-04 07: 51: 29
    FromStats_BitRate : 224000
    FromStats_Duration : 02: 06: 31.648000000
    FromStats_FrameCount : 237239
    FromStats_StreamSize : 212566144
    Текст #1
    Идентификатор : 4
    Формат : UTF-8
    Идентификатор кодека : S_TEXT/UTF8
    Идентификатор кодека/Информация : UTF-8 Plain Text
    Язык : Russian
    Default : Нет
    Forced : Нет
    Текст #2
    Идентификатор : 5
    Формат : UTF-8
    Идентификатор кодека : S_TEXT/UTF8
    Идентификатор кодека/Информация : UTF-8 Plain Text
    Заголовок : SDH
    Язык : English
    Default : Нет
    Forced : Нет
    Текст #3
    Идентификатор : 6
    Формат : UTF-8
    Идентификатор кодека : S_TEXT/UTF8
    Идентификатор кодека/Информация : UTF-8 Plain Text
    Язык : English
    Default : Нет
    Forced : Нет
    Меню
    00: 00: 00.000 : en: 00: 00: 00.000
    00: 13: 20.466 : en: 00: 13: 20.466
    00: 25: 56.013 : en: 00: 25: 56.013
    00: 39: 14.936 : en: 00: 39: 14.936
    00: 47: 33.100 : en: 00: 47: 33.100
    00: 58: 55.157 : en: 00: 58: 55.157
    01: 07: 17.533 : en: 01: 07: 17.533
    01: 17: 44.952 : en: 01: 17: 44.952
    01: 25: 50.312 : en: 01: 25: 50.312
    01: 31: 06.002 : en: 01: 31: 06.002
    01: 42: 17.298 : en: 01: 42: 17.298
    01: 49: 38.781 : en: 01: 49: 38.781
    02: 01: 40.752 : en: 02: 01: 40.752
    02: 06: 05.308 : en: 02: 06: 05.308

    Скриншоты для ознакомления



    Все одноименные релизы в Клубе
    Время раздачи: c 5 до 19 мск (до появления первых 3-5 скачавших)

    Онлайн видео Эльдорадо



    Эльдорадо/El Dorado (1967) BDRip [H.264/1080p]
    Рейтинг →
     (голосов: 1, оценка 4/5, голосовать можно 1 раз )

    Другие торренты по теме:

  • Дорога на Эльдорадо / The Road to El Dorado (2000) WEB-DL [H.264]
  • Эльдорадо / El Dorado (1966) BDRip [H.264 / 720р-LQ]
  • Эльдорадо / El Dorado (2010) BDRip
  • Эльдорадо / El Dorado (1967) Blu-ray [H.264 / 1080p] [Custom]
  • Дорога на Эльдорадо / The Road to El Dorado (2000) WEB-DL [H.264 / 1080p]


    • Комментарии (0):

      Информация

      Информация

        Посетители, находящиеся в группе Гости, не могут оставлять комментарии в данной новости.

        ↓ Меню




        ↓ Опрос

        Вы добавили сайт в закладки?
        Да
        Нет


        Популярное