.
Авторизация | Регистрация
bitok.xyz
» » Гран Торино / Gran Torino (2008) BDRip [H.264 / 720p] торрент скачать бесплатно

    Гран Торино / Gran Torino (2008) BDRip [H.264 / 720p] торрент скачать бесплатно

    Дата: 25-12-2019, 05:00 | .torrent скачали: 0

    Гран Торино / Gran Torino (2008) BDRip [H.264 / 720p]Производство: США, Германия/Warner Bros. GmbH, Village Roadshow Pictures
    Жанр: Драма
    Режиссер: Клинт Иствуд

    Актеры
    Клинт Иствуд, Кристофер Карли, Би Ванг, Эни Хи, Брайан Хейли, Джеральдин Хьюз, Dreama Walker, Брайан Хоу, Джон Кэрролл Линч, Уильям Хилл

    Описание

    Вышедший на пенсию автомеханик Уолт Ковальски проводит дни, работая по дому, попивая пиво и раз в месяц заходя к парикмахеру.
    И хотя последним желанием его недавно почившей жены было совершение им исповеди, Уолту — ожесточившемуся ветерану Корейской войны, всегда держащему свою винтовку наготове, — признаваться в общем-то не в чем.
    Да и нет того, кому он доверял бы в той полной мере, в какой доверяет своей собаке Дейзи.
    Все те люди, коих он некогда называл своими соседями, либо переехали, либо ушли в мир иной, а на смену им пришли иммигранты-хмоны, которых он откровенно презирает.
    Противясь буквально всему, во что упирается его взгляд, — покосившиеся карнизы, заросшие лужайки домов и лица иностранцев повсюду; бесцельно шатающиеся шайки подростков, состоящие из хмонов, латиносов и афро-американцев, полагающих, что окрестный мир целиком принадлежит им одним; неоперившиеся чужаки, в которых оказалось превратились собственные дети и внуки, — Уолт просто неспешно проживает остаток своей жизни.
    До той самой ночи, когда кто-то попытается украсть его Гран Торино…

    Возраст: 16+ (зрителям, достигшим 16 лет)
    Рейтинг MPAA: R (лицам до 17 лет обязательно присутствие взрослогo)
    Продолжительность: 01: 56: 40
    Качество видео: BDRip
    Язык озвучки: Русский, украинский, английский
    Перевод: Дублированный, Многоголосый закадровый, Авторский одноголосый
    Субтитры: Русские, Украинские, Английские
    Видео: AVC/H.264, 1280x534, ~4540 kbps
    Аудио#1: AC3, 6 ch, 640 kbps - Русский дубляж (Blu-ray CEE)
    Аудио#2: AC3, 2 ch, 192 kbps - Русский многоголосый (Первый канал)
    Аудио#3: AC3, 6 ch, 640 kbps - Русский авторский одноголосый (Ю.Сербин)
    Аудио#4: AC3, 6 ch, 640 kbps - Русский авторский одноголосый (Д.Штамп)
    Аудио#5: AC3, 6 ch, 640 kbps - Украинский многоголосый (Омикрон)
    Аудио#6: AC3, 6 ch, 640 kbps - АнглийскийGeneral
    Complete name : Gran.Torino.2008.720p.BluRay.4xRus.Ukr.Eng..mkv
    Format : Matroska
    File size : 6.60 GiB
    Duration : 1h 56mn
    Overall bit rate : 8 093 Kbps
    Movie name : Gran Torino (2008)
    Encoded date : UTC 2012-02-17 02: 56: 27
    Writing application : mkvmerge v5.2.1 (\'A Far Off Place\') built on Jan 2 2012 23: 21: 10
    Writing library : libebml v1.2.3 + libmatroska v1.3.0
    Cover : Yes/Yes
    Video
    ID : 1
    Format : AVC
    Format/Info : Advanced Video Codec
    Format profile : High@L4.1
    Format settings, CABAC : Yes
    Format settings, ReFrames : 11 frames
    Muxing mode : Container profile=Unknown@4.1
    Codec ID : V_MPEG4/ISO/AVC
    Duration : 1h 56mn
    Bit rate : 4 540 Kbps
    Nominal bit rate : 4 700 Kbps
    Width : 1 280 pixels
    Height : 534 pixels
    Display aspect ratio : 2.35: 1
    Frame rate : 23.976 fps
    Resolution : 8 bits
    Colorimetry : 4: 2: 0
    Scan type : Progressive
    Bits/(Pixel*Frame) : 0.277
    Stream size : 3.70 GiB (56%)
    Title : Release for HDCLUB
    Writing library : x264 core 120 r2164 da19765
    Encoding settings : cabac=1/ref=11/deblock=1: -3: -2/analyse=0x3: 0x113/me=umh/subme=11/psy=1/psy_rd=0.90: 0.05/mixed_ref=1/me_range=48/chroma_me=1/trellis=2/8x8dct=1/cqm=0/deadzone=21, 11/fast_pskip=0/chroma_qp_offset=-3/threads=12/sliced_threads=0/nr=0/decimate=0/interlaced=0/bluray_compat=0/constrained_intra=0/bframes=11/b_pyramid=2/b_adapt=2/b_bias=0/direct=3/weightb=1/open_gop=0/weightp=2/keyint=250/keyint_min=23/scenecut=40/intra_refresh=0/rc_lookahead=40/rc=2pass/mbtree=0/bitrate=4700/ratetol=1.0/qcomp=0.70/qpmin=0/qpmax=69/qpstep=4/cplxblur=20.0/qblur=0.5/vbv_maxrate=50000/vbv_bufsize=62500/nal_hrd=none/ip_ratio=1.30/pb_ratio=1.20/aq=2: 0.80
    Matrix coefficients : BT.709-5, BT.1361, IEC 61966-2-4 709, SMPTE RP177
    Audio #1
    ID : 2
    Format : AC-3
    Format/Info : Audio Coding 3
    Codec ID : A_AC3
    Duration : 1h 56mn
    Bit rate mode : Constant
    Bit rate : 640 Kbps
    Channel(s) : 6 channels
    Channel positions : Front: L C R, Surround: L R, LFE
    Sampling rate : 48.0 KHz
    Stream size : 534 MiB (8%)
    Title : AC3 5.1 @ 640 kbps - Дублированный, Blu-ray CEE
    Language : Russian
    Audio #2
    ID : 3
    Format : AC-3
    Format/Info : Audio Coding 3
    Codec ID : A_AC3
    Duration : 1h 56mn
    Bit rate mode : Constant
    Bit rate : 192 Kbps
    Channel(s) : 2 channels
    Channel positions : L R
    Sampling rate : 48.0 KHz
    Stream size : 160 MiB (2%)
    Title : AC3 2.0 @ 192 kbps - Многоголосный, Первый канал
    Language : Russian
    Audio #3
    ID : 4
    Format : AC-3
    Format/Info : Audio Coding 3
    Codec ID : A_AC3
    Duration : 1h 56mn
    Bit rate mode : Constant
    Bit rate : 640 Kbps
    Channel(s) : 6 channels
    Channel positions : Front: L C R, Surround: L R, LFE
    Sampling rate : 48.0 KHz
    Stream size : 534 MiB (8%)
    Title : AC3 5.1 @ 640 kbps - Одноголосный, Ю. Сербин
    Language : Russian
    Audio #4
    ID : 5
    Format : AC-3
    Format/Info : Audio Coding 3
    Codec ID : A_AC3
    Duration : 1h 56mn
    Bit rate mode : Constant
    Bit rate : 640 Kbps
    Channel(s) : 6 channels
    Channel positions : Front: L C R, Surround: L R, LFE
    Sampling rate : 48.0 KHz
    Stream size : 534 MiB (8%)
    Title : AC3 5.1 @ 640 kbps - Одноголосный, Д. Штамп
    Language : Russian
    Audio #5
    ID : 6
    Format : AC-3
    Format/Info : Audio Coding 3
    Codec ID : A_AC3
    Duration : 1h 56mn
    Bit rate mode : Constant
    Bit rate : 640 Kbps
    Channel(s) : 6 channels
    Channel positions : Front: L C R, Surround: L R, LFE
    Sampling rate : 48.0 KHz
    Stream size : 534 MiB (8%)
    Title : AC3 5.1 @ 640 kbps - Многоголосный, Омикрон
    Language : Ukrainian
    Audio #6
    ID : 7
    Format : AC-3
    Format/Info : Audio Coding 3
    Codec ID : A_AC3
    Duration : 1h 56mn
    Bit rate mode : Constant
    Bit rate : 640 Kbps
    Channel(s) : 6 channels
    Channel positions : Front: L C R, Surround: L R, LFE
    Sampling rate : 48.0 KHz
    Stream size : 534 MiB (8%)
    Title : AC3 5.1 @ 640 kbps
    Text #1
    ID : 8
    Format : UTF-8
    Codec ID : S_TEXT/UTF8
    Codec ID/Info : UTF-8 Plain Text
    Title : forced
    Language : Russian
    Text #2
    ID : 9
    Format : UTF-8
    Codec ID : S_TEXT/UTF8
    Codec ID/Info : UTF-8 Plain Text
    Language : Russian
    Text #3
    ID : 10
    Format : UTF-8
    Codec ID : S_TEXT/UTF8
    Codec ID/Info : UTF-8 Plain Text
    Title : Д. Пучков
    Language : Russian
    Text #4
    ID : 11
    Format : UTF-8
    Codec ID : S_TEXT/UTF8
    Codec ID/Info : UTF-8 Plain Text
    Title : REN
    Language : Russian
    Text #5
    ID : 12
    Format : UTF-8
    Codec ID : S_TEXT/UTF8
    Codec ID/Info : UTF-8 Plain Text
    Language : Ukrainian
    Text #6
    ID : 13
    Format : UTF-8
    Codec ID : S_TEXT/UTF8
    Codec ID/Info : UTF-8 Plain Text
    Text #7
    ID : 14
    Format : UTF-8
    Codec ID : S_TEXT/UTF8
    Codec ID/Info : UTF-8 Plain Text
    Title : forced
    Menu
    00: 00: 00.000 : en: Inevitable Disappointment
    00: 03: 54.525 : en: I Confess
    00: 08: 45.356 : en: Men of Their Houses
    00: 13: 14.125 : en: Chill With Us
    00: 18: 08.377 : en: More About Death
    00: 20: 57.006 : en: Attempted Theft
    00: 24: 20.750 : en: Get Off My Lawn
    00: 28: 49.059 : en: We\'re Not in Korea
    00: 31: 41.650 : en: Crazy Old Man
    00: 36: 18.050 : en: That Brother of Yours
    00: 40: 13.744 : en: Unhappy Birthday
    00: 43: 46.289 : en: Not at Peace
    00: 48: 44.380 : en: Fixer and Toad
    00: 53: 55.898 : en: Making Amends
    00: 57: 04.420 : en: Home Improvements
    01: 01: 05.661 : en: Nice Talking to You
    01: 04: 21.689 : en: Helpful Hands
    01: 10: 43.113 : en: Manning Thao Up
    01: 16: 28.125 : en: Construction Job
    01: 20: 04.756 : en: Making Him Look Bad
    01: 22: 55.136 : en: Getting Ugly
    01: 26: 14.211 : en: Targets
    01: 29: 15.475 : en: Pissed-Off Padre
    01: 33: 30.063 : en: What Needs to Be Done
    01: 36: 31.786 : en: At Peace
    01: 38: 41.582 : en: I Finish Things
    01: 43: 45.426 : en: I\'ve Got a Light
    01: 46: 09.113 : en: Last Rites and Wishes
    01: 51: 04.408 : en: End CreditsCкриншоты:

    Все одноименные релизы в Клубе
    Время раздачи: 24/7 (до появления первых 3-5 скачавших)

    Онлайн видео Гран Торино


    Прямая ссылка скачивания через uTorrent


    Гран Торино/Gran Torino (2008) BDRip [H.264/720p]
    Рейтинг →
     (голосов: 1, оценка 5/5, голосовать можно 1 раз )

    Другие торренты по теме:

  • Гран Торино / Gran Torino (2008) BDRip [H.264 / 1080p] скачать через торрент бесплатно
  • Гран Торино / Gran Torino (2008) BDRip [H.264 / 720р-LQ]
  • Гран Торино / Gran Torino (2008) BDRip [H.264 / 720р]
  • Гран Торино / Gran Torino (2008) BDRemux [VС-1 / 1080p]
  • Гран Торино / Gran Torino (2008) HDRip
  • Гран Торино / Gran Torino (2008) BDRip [720p] ATV [Line]


    • Комментарии (0):

      Информация

      Информация

        Посетители, находящиеся в группе Гости, не могут оставлять комментарии в данной новости.

        ↓ Меню




        ↓ Опрос

        Вы добавили сайт в закладки?
        Да
        Нет


        Популярное