.
Авторизация | Регистрация
bitok.xyz
» » Патриот / The Patriot (1998) BDRemux [H.264 / 1080i] [FRA Transfer] торрент скачать бесплатно


    Патриот / The Patriot (1998) BDRemux [H.264 / 1080i] [FRA Transfer] торрент скачать бесплатно

    Дата: 25-12-2019, 05:00 | .torrent скачали: 0

    Патриот / The Patriot (1998) BDRemux [H.264 / 1080i] [FRA Transfer]Производство: США/Interlight, Seagal/Nasso Productions, Baldwin/Cohen Productions
    Жанр: Боевик, Триллер
    Режиссер: Дин Семлер
    Продюсер: Ховард Болдуин, Виктор Хванг, Джулиус Р. Нассо

    Актеры
    Стивен Сигал, Гейлард Сартейн, Л. К. Джонс, Сайлас Уэйр Митчелл, Камилла Белль, Дэн Бин, Дэймон Коллазо, Уитни Йеллоу Роуб, Брэд Лелэнд, Молли МакКлюр

    Описание

    Группа террористов похищает новейшее бактериологическое оружие и распространяет смертельный вирус в небольшом городке штата Монтана. Привитая всем членам группировки вакцина не дает нужного эффекта и террористы оказываются на равных со своими жертвами. Только восьмилетняя дочь известного вирусолога и бывшего спецагента МакКларена обладает врожденным иммунитетом к страшному вирусу. Из её крови террористы собираются приготовить спасительную сыворотку. МакКларен вступает в схватку за жизнь единственной дочери и своих земляков.

    Возраст: 0+ (для любой зрительской аудитории)
    Рейтинг MPAA: R (лицам до 17 лет обязательно присутствие взрослого)
    Релиз от: R.G. Goldenshara
    Продолжительность: 01: 26: 39
    Качество видео: BDRemux 1080i
    Перевод: Многоголосый профессиональный, Двухголосый профессиональный, Авторский, Одноголосый
    Язык озвучки: Русский, Украинский, Английский
    Субтитры: Английские
    Видео: AVC/H.264, 1920x1080 (16: 9), ~21.7 Mbps, 25 fps
    Аудио #1: AC3, 2 ch, 48.0 KHz, 192 kbps | Русский - (MVO РТР)
    Аудио #2: AC3, 2 ch, 48.0 KHz, 192 kbps | Русский - (MVO Хлопушка)
    Аудио #3: AC3, 2 ch, 48.0 KHz, 192 kbps | Русский - (DVO СТС)
    Аудио #4: AC3, 2 ch, 48.0 KHz, 192 kbps | Русский - (AVO Ю. Сербин)
    Аудио #5: AC3, 2 ch, 48.0 KHz, 224 kbps | Русский - (AVO С. Визгунов)
    Аудио #6: AC3, 2 ch, 48.0 KHz, 192 kbps | Русский - (VO Неизвестный)
    Аудио #7: AC3, 2 ch, 48.0 KHz, 192 kbps | Украинский - (DVO 2x2)
    Аудио #8: AC3, 6 ch, 48.0 KHz, 448 kbps | Английский
    General
    Unique ID : 181839038011286880968159203430039808845 (0x88CCECC214E590C48BB0631EA4ABEB4D)
    Complete name : E: Мои рипыПатриот.1998.BDRemux.1080i.R.G. Goldenshara.mkv
    Format : Matroska
    Format version : Version 4/Version 2
    File size : 14.2 GiB
    Duration : 1h 26mn
    Overall bit rate : 23.5 Mbps
    Movie name : The.Patriot.1998.576p.BluRay.x264-HANDJOB
    Encoded date : UTC 2019-12-23 19: 33: 03
    Writing application : mkvmerge v6.8.0 (\'Theme for Great Cities\') 64bit built on Mar 2 2014 21: 34: 26
    Writing library : libebml v1.3.0 + libmatroska v1.4.1
    Video
    ID : 1
    Format : AVC
    Format/Info : Advanced Video Codec
    Format profile : High@L4.1
    Format settings, CABAC : Yes
    Format settings, ReFrames : 4 frames
    Format settings, GOP : M=3, N=24
    Codec ID : V_MPEG4/ISO/AVC
    Bit rate mode : Constant
    Bit rate : 22.0 Mbps
    Width : 1 920 pixels
    Height : 1 080 pixels
    Display aspect ratio : 16: 9
    Frame rate mode : Variable
    Original frame rate : 25.000 fps
    Standard : PAL
    Color space : YUV
    Chroma subsampling : 4: 2: 0
    Bit depth : 8 bits
    Scan type : MBAFF
    Bits/(Pixel*Frame) : 0.424
    Language : English
    Default : Yes
    Forced : No
    Color primaries : BT.709
    Transfer characteristics : BT.709
    Matrix coefficients : BT.709
    Audio #1
    ID : 2
    Format : AC-3
    Format/Info : Audio Coding 3
    Mode extension : CM (complete main)
    Format settings, Endianness : Big
    Codec ID : A_AC3
    Duration : 1h 26mn
    Bit rate mode : Constant
    Bit rate : 192 Kbps
    Channel(s) : 2 channels
    Channel positions : Front: L R
    Sampling rate : 48.0 KHz
    Bit depth : 16 bits
    Compression mode : Lossy
    Delay relative to video : 1s 0ms
    Stream size : 119 MiB (1%)
    Title : MVO РТР
    Language : Russian
    Default : Yes
    Forced : No
    Audio #2
    ID : 3
    Format : AC-3
    Format/Info : Audio Coding 3
    Mode extension : CM (complete main)
    Format settings, Endianness : Big
    Codec ID : A_AC3
    Duration : 1h 26mn
    Bit rate mode : Constant
    Bit rate : 192 Kbps
    Channel(s) : 2 channels
    Channel positions : Front: L R
    Sampling rate : 48.0 KHz
    Bit depth : 16 bits
    Compression mode : Lossy
    Delay relative to video : 2s 200ms
    Stream size : 119 MiB (1%)
    Title : MVO Хлопушка
    Language : Russian
    Default : No
    Forced : No
    Audio #3
    ID : 4
    Format : AC-3
    Format/Info : Audio Coding 3
    Mode extension : CM (complete main)
    Format settings, Endianness : Big
    Codec ID : A_AC3
    Duration : 1h 26mn
    Bit rate mode : Constant
    Bit rate : 192 Kbps
    Channel(s) : 2 channels
    Channel positions : Front: L R
    Sampling rate : 48.0 KHz
    Bit depth : 16 bits
    Compression mode : Lossy
    Delay relative to video : 2s 150ms
    Stream size : 119 MiB (1%)
    Title : DVO СТС
    Language : Russian
    Default : No
    Forced : No
    Audio #4
    ID : 5
    Format : AC-3
    Format/Info : Audio Coding 3
    Mode extension : CM (complete main)
    Format settings, Endianness : Big
    Codec ID : A_AC3
    Duration : 1h 26mn
    Bit rate mode : Constant
    Bit rate : 192 Kbps
    Channel(s) : 2 channels
    Channel positions : Front: L R
    Sampling rate : 48.0 KHz
    Bit depth : 16 bits
    Compression mode : Lossy
    Delay relative to video : 1s 0ms
    Stream size : 119 MiB (1%)
    Title : AVO Ю.Сербин
    Language : Russian
    Default : No
    Forced : No
    Audio #5
    ID : 6
    Format : AC-3
    Format/Info : Audio Coding 3
    Mode extension : CM (complete main)
    Format settings, Endianness : Big
    Codec ID : A_AC3
    Duration : 1h 26mn
    Bit rate mode : Constant
    Bit rate : 224 Kbps
    Channel(s) : 2 channels
    Channel positions : Front: L R
    Sampling rate : 48.0 KHz
    Bit depth : 16 bits
    Compression mode : Lossy
    Delay relative to video : 1s 0ms
    Stream size : 139 MiB (1%)
    Title : AVO С. Визгунов
    Language : Russian
    Default : No
    Forced : No
    Audio #6
    ID : 7
    Format : AC-3
    Format/Info : Audio Coding 3
    Mode extension : CM (complete main)
    Format settings, Endianness : Big
    Codec ID : A_AC3
    Duration : 1h 26mn
    Bit rate mode : Constant
    Bit rate : 192 Kbps
    Channel(s) : 2 channels
    Channel positions : Front: L R
    Sampling rate : 48.0 KHz
    Bit depth : 16 bits
    Compression mode : Lossy
    Delay relative to video : 1s 0ms
    Stream size : 119 MiB (1%)
    Title : VO Неизвестный
    Language : Russian
    Default : No
    Forced : No
    Audio #7
    ID : 8
    Format : AC-3
    Format/Info : Audio Coding 3
    Mode extension : CM (complete main)
    Format settings, Endianness : Big
    Codec ID : A_AC3
    Duration : 1h 26mn
    Bit rate mode : Constant
    Bit rate : 192 Kbps
    Channel(s) : 2 channels
    Channel positions : Front: L R
    Sampling rate : 48.0 KHz
    Bit depth : 16 bits
    Compression mode : Lossy
    Delay relative to video : 2s 350ms
    Stream size : 119 MiB (1%)
    Language : Ukrainian
    Default : No
    Forced : No
    Audio #8
    ID : 9
    Format : AC-3
    Format/Info : Audio Coding 3
    Mode extension : CM (complete main)
    Format settings, Endianness : Big
    Codec ID : A_AC3
    Duration : 1h 26mn
    Bit rate mode : Constant
    Bit rate : 448 Kbps
    Channel(s) : 6 channels
    Channel positions : Front: L C R, Side: L R, LFE
    Sampling rate : 48.0 KHz
    Bit depth : 16 bits
    Compression mode : Lossy
    Delay relative to video : 1s 0ms
    Stream size : 278 MiB (2%)
    Language : English
    Default : No
    Forced : No
    Text
    ID : 10
    Format : UTF-8
    Codec ID : S_TEXT/UTF8
    Codec ID/Info : UTF-8 Plain Text
    Language : English
    Default : No
    Forced : No


    Онлайн видео Патриот



    Патриот/The Patriot (1998) BDRemux [H.264/1080i] [FRA Transfer]
    Рейтинг →
     (голосов: 1, оценка 3/5, голосовать можно 1 раз )

    Другие торренты по теме:

  • Патриот / Patriot (2015) WEBRip (сезон 1, серия 1-3 из 10) BaibaKo (обновляемая)
  • Патриот / Patriot (2018) WEBRip [H.264 / 1080p-LQ] (сезон 2, серии 1-8 из 8) TVShows
  • Патриот / The Patriot (2000) BDRip [H.264 / 720p]
  • Патриот / The Patriot (2000) BDRip [H.265 / 1080p-LQ]
  • Экс-патриот / Ex-Patriot (2017) WEB-DLRip
  • Экс-патриот / Ex-Patriot (2017) WEB-DL [H.264 / 1080p-LQ]
  • Патриот / The Patriot (2000) UHD Blu-ray [H.265 / 2160p] [4K, HDR, 10-bit] [EUR] [Театральная версия]
  • Патриот / The Patriot (2000) UHD BDRemux [H.265 / 2160p] [4K, HDR, 10-bit] [Театральная версия]


    • Комментарии (0):

      Информация

      Информация

        Посетители, находящиеся в группе Гости, не могут оставлять комментарии в данной новости.

        ↓ Меню




        ↓ Опрос

        Вы добавили сайт в закладки?
        Да
        Нет


        Популярное