.
Авторизация | Регистрация
bitok.xyz
» » Гран Торино / Gran Torino (2008) HDRip торрент скачать бесплатно


    Гран Торино / Gran Torino (2008) HDRip торрент скачать бесплатно

    Дата: 25-12-2019, 05:00 | .torrent скачали: 0

    Гран Торино / Gran Torino (2008) HDRipПроизводство: США, Германия/Warner Bros. GmbH, Village Roadshow Pictures
    Жанр: Драма
    Режиссер: Клинт Иствуд

    Актеры
    Клинт Иствуд, Кристофер Карли, Би Ванг, Эни Хи, Брайан Хейли, Джеральдин Хьюз, Dreama Walker, Брайан Хоу, Джон Кэрролл Линч, Уильям Хилл, Brooke Chia Thao, Chee Thao, Choua Kue, Скотт Ривз, Xia Soua Chang, Sonny Vue, Doua Moua, Greg Trazaskoma, Джон Джонс, Davis Gloff, Thomas D. Mahard

    Описание

    Вышедший на пенсию автомеханик Уолт Ковальски проводит дни, починяя что-то по дому, попивая пиво и раз в месяц заходя к парикмахеру. И хотя последним желанием его недавно почившей жены было совершение им исповеди, Уолту - ожесточившемуся ветерану Корейской войны, всегда держащему свою винтовку наготове, - признаваться в общем-то не в чем. Да и нет того, кому он доверял бы в той полной мере, в какой доверяет своей собаке Дейзи.
    Все те люди, коих он некогда называл своими соседями, либо переехали, либо ушли в мир иной, а на смену им пришли иммигранты-моны, которых он откровенно презирает. Противясь буквально всему, во что упирается его взгляд, - покосившиеся карнизы, заросшие лужайки домов и лица иностранцев повсюду; бесцельно шатающиеся шайки подростков, состоящие из хмонов, латиносов и афро-американцев, полагающих, что окрестный мир целиком принадлежит им одним; неоперившиеся чужаки, в которых оказалось превратились собственные дети и внуки, - Уолт просто неспешно проживает остаток своей жизни.
    До той самой ночи, когда кто-то попытается украсть его Гран Торино...

    Возраст: 16+ (для детей, достигших возраста 16 лет)
    Рейтинг MPAA: R (лицам до 17 лет обязательно присутствие взрослого)
    Продолжительность: 01: 56: 34
    Качество видео: HDRip
    Перевод: Профессиональный многоголосый
    Субтитры: Отсутствуют
    Видео: 720x304 (2.35: 1), 23.976 fps, ~1734 kbps
    Аудио 1: AC3, 6 ch, 384 Kbps - Русский
    Аудио 2: AC3, 6 ch, 384 Kbps - Английский (Оригинал)
    Формат : AVI
    Формат/Информация : Audio Video Interleave
    Профиль формата : OpenDML
    Размер файла : 2, 05 Гбайт
    Продолжительность : 1 ч. 56 м.
    Общий поток : 2520 Кбит/сек
    Название фильма : Gran.Torino.2008.D.HDRip.uniongang.tv
    Режиссёр : UNIONGANG
    Жанр : Drama
    Программа кодирования : VirtualDubMod 1.5.10.2 (build 2540/release)
    Формат оригинала/Имя : Movie
    Примечание : rip by JurganT
    Видео
    Идентификатор : 0
    Формат : MPEG-4 Visual
    Профиль формата : Advanced Simple@L5
    Настройки формата : BVOP4
    Параметр BVOP формата : 4
    Параметр QPel формата : Нет
    Параметр GMC формата : Без точки перехода
    Параметр матрицы формата : Default (MPEG)
    Идентификатор кодека : XVID
    Идентификатор кодека/Подсказка : XviD
    Продолжительность : 1 ч. 56 м.
    Битрейт : 1734 Кбит/сек
    Ширина : 720 пикселей
    Высота : 304 пикселя
    Соотношение сторон : 2, 35: 1
    Частота кадров : 23, 976 (24000/1001) кадра/сек
    Цветовое пространство : YUV
    Субдискретизация насыщенности : 4: 2: 0
    Битовая глубина : 8 бит
    Тип развёртки : Прогрессивная
    Метод сжатия : С потерями
    Бит/(Пиксели*Кадры) : 0.330
    Размер потока : 1, 41 Гбайт (69%)
    Библиотека кодирования : XviD 1.2.1 (UTC 2008-12-04)
    Аудио #1
    Идентификатор : 1
    Формат : AC-3
    Формат/Информация : Audio Coding 3
    Коммерческое название : Dolby Digital
    Идентификатор кодека : 2000
    Продолжительность : 1 ч. 56 м.
    Вид битрейта : Постоянный
    Битрейт : 384 Кбит/сек
    Каналы : 6 каналов
    ChannelLayout : L R C LFE Ls Rs
    Частота : 48, 0 КГц
    Частота кадров : 31, 250 кадров/сек (1536 SPF)
    Метод сжатия : С потерями
    Размер потока : 320 Мбайт (15%)
    Выравнивание : Соединение по промежуткам
    Продолжительность промежутка : 42 мс. (1, 00 видеокадр)
    Время предзагрузки промежутка : 512 мс.
    ServiceKind/String : Complete Main
    Аудио #2
    Идентификатор : 2
    Формат : AC-3
    Формат/Информация : Audio Coding 3
    Коммерческое название : Dolby Digital
    Идентификатор кодека : 2000
    Продолжительность : 1 ч. 56 м.
    Вид битрейта : Постоянный
    Битрейт : 384 Кбит/сек
    Каналы : 6 каналов
    ChannelLayout : L R C LFE Ls Rs
    Частота : 48, 0 КГц
    Частота кадров : 31, 250 кадров/сек (1536 SPF)
    Метод сжатия : С потерями
    Размер потока : 320 Мбайт (15%)
    Выравнивание : Разделение по промежуткам
    Продолжительность промежутка : 42 мс. (1, 00 видеокадр)
    Время предзагрузки промежутка : 500 мс.
    ServiceKind/String : Complete Main

    Скриншоты для ознакомления


    Все одноименные релизы в Клубе
    Время раздачи: 24/7 (до появления первых 3-5 скачавших)

    Онлайн видео Гран Торино



    Гран Торино/Gran Torino (2008) HDRip
    Рейтинг →
     (голосов: 1, оценка 5/5, голосовать можно 1 раз )

    Другие торренты по теме:

  • Гран Торино / Gran Torino (2008) BDRip [H.264 / 1080p] скачать через торрент бесплатно
  • Гран Торино / Gran Torino (2008) BDRip [H.264 / 720р-LQ]
  • Гран Торино / Gran Torino (2008) BDRip [H.264 / 720р]
  • Гран Торино / Gran Torino (2008) BDRemux [VС-1 / 1080p]
  • Гран Торино / Gran Torino (2008) BDRip [H.264 / 720p]
  • Гран Торино / Gran Torino (2008) BDRip [720p] ATV [Line]


    • Комментарии (0):

      Информация

      Информация

        Посетители, находящиеся в группе Гости, не могут оставлять комментарии в данной новости.

        ↓ Меню




        ↓ Опрос

        Вы добавили сайт в закладки?
        Да
        Нет


        Популярное

        Полицейский с Рублёвки. Новогодний беспредел 2 (2019) CamRip [AD]

        (скачиваний: 2331)
        Властелин колец: Трилогия / The Lord of the Rings: Trilogy (2001,2002,2003) BDRip [H.264] [Extended Editions] скачать через торрент бесплатно

        (скачиваний: 674)
        Властелин колец / The Lord of the Rings (2001,2002,2003) BDRip [Extended Edition] [H.264 / 1080p-LQ] [Hi10P]

        (скачиваний: 661)
        Начало / Inception (2010) BDRip [H.265 / 1080p]

        (скачиваний: 647)
        Властелин колец / The Lord of the Rings (2001,2002,2003) BDRip [1080p] [Extended Edition] [Трилогия]

        (скачиваний: 608)
        Квартирник НТВ у Маргулиса. Новогодний выпуск (31.12.2019) WEB-DL [H.264 / 1080p-LQ]

        (скачиваний: 456)
        Каникулы off-line (2018) WEBRip

        (скачиваний: 438)
        Хоббит: Трилогия / The Hobbit: Trilogy (2012, 2013, 2014) BDRip [H.265 / 1080p-LQ] [10-bit] [Расширенная версия]

        (скачиваний: 398)
        Властелин колец / The Lord of the Rings (2001,2002,2003) BDRip [1080p] [Extended Edition] [Трилогия] скачать через торрент бесплатно

        (скачиваний: 281)
        Во все тяжкие / Breaking Bad (2008-2013) BDRip [H.264 / 1080p] (сезон 1-5, серии 1-62 из 62) Кубик в Кубе, LostFilm скачать через торрент бесплатно

        (скачиваний: 256)