.
Авторизация | Регистрация
bitok.xyz
» » Рождественская сказка / Un conte de Noel (2008) HDRip [MVO] торрент скачать бесплатно


    Рождественская сказка / Un conte de Noel (2008) HDRip [MVO] торрент скачать бесплатно

    Дата: 25-12-2019, 05:00 | .torrent скачали: 1

    Рождественская сказка / Un conte de Noel (2008) HDRip [MVO]Производство: Франция/Bac Films, C.R.R.A.V. Nord Pas de Calais, Canal+ fr, Centre National de la Cinématographie (CNC)
    Жанр: Драма, комедия
    Режиссер: Арно Деплешен

    Актеры
    Катрин Денёв, Жан-Поль Руссийон, Анн Консиньи, Матьё Амальрик, Мельвиль Пупо, Ипполит Жирардо, Эммануэль Дево, Кьяра Мастроянни, Лорен Капеллуто, Эмиль Берлинг

    Описание

    Юнона и Абель — пожилая супружеская пара. На Рождество их дети должны собраться под крышей отчего дома все вместе впервые за шесть лет. Старшая дочь Элизабет приезжает со своим замкнутым и необщительным ребенком Полем. Анри, паршивая овца в семействе, привозит любовницу.
    Младший из сыновей Иван прибывает с преданной женой Сильвией и двумя детьми. Еще ожидается племянник Симон, сын умершего брата Юноны. Но на повестке дня будет не только праздник в теплом семейном кругу. Для Юноны, у которой обнаружили лейкемию, это Рождество может стать последним. Элизабет и Анри многие годы терпеть не могут друг друга, им придется помириться. В прошлом Сильвии скрывается какая-то зловещая тайна, которую ей предстоит узнать.

    Возраст: 16+ (зрителям, достигшим 16 лет)
    Награды и номинации
    Продолжительность: 02: 32: 11
    Качество видео: HDRip
    Перевод: Многоголосый закадровый, профессиональный (Кинопоказ)
    Субтитры: Отсутствуют
    Видео: XviD, 720x304, ~1406 Kbps
    Аудио #1: AC3, 2 ch, 192 Kbps - Русский
    Аудио #2: AC3, 6 ch, 448 Kbps - Французский
    Общее
    Полное имя : D: NNMРождественская сказкаUn.conte.de.Noel.2008.HDRip.avi
    Формат : AVI
    Формат/Информация : Audio Video Interleave
    Профиль формата : OpenDML
    Размер файла : 2, 19 Гбайт
    Продолжительность : 2 ч. 32 м.
    Общий поток : 2064 Кбит/сек
    Название фильма : Рождественская сказка/A Christmas Tale/Un conte de Noel (2008)
    Программа кодирования : VirtualDubMod 1.5.10.2 (build 2540/release)
    Библиотека кодирования : VirtualDubMod build 2540/release
    Авторское право : miha2154
    Видео
    Идентификатор : 0
    Формат : MPEG-4 Visual
    Профиль формата : Advanced Simple@L5
    Настройки формата : BVOP2
    Параметр BVOP формата : 2
    Параметр QPel формата : Нет
    Параметр GMC формата : Без точки перехода
    Параметр матрицы формата : Default (MPEG)
    Идентификатор кодека : XVID
    Идентификатор кодека/Подсказка : XviD
    Продолжительность : 2 ч. 32 м.
    Битрейт : 1406 Кбит/сек
    Ширина : 720 пикселей
    Высота : 304 пикселя
    Соотношение сторон : 2, 35: 1
    Частота кадров : 23, 976 (24000/1001) кадра/сек
    Цветовое пространство : YUV
    Субдискретизация насыщенности : 4: 2: 0
    Битовая глубина : 8 бит
    Тип развёртки : Прогрессивная
    Метод сжатия : С потерями
    Бит/(Пиксели*Кадры) : 0.268
    Размер потока : 1, 49 Гбайт (68%)
    Библиотека кодирования : XviD 1.1.0 (UTC 2005-11-22)
    Аудио #1
    Идентификатор : 1
    Формат : AC-3
    Формат/Информация : Audio Coding 3
    Коммерческое название : Dolby Digital
    Идентификатор кодека : 2000
    Продолжительность : 2 ч. 32 м.
    Вид битрейта : Постоянный
    Битрейт : 192 Кбит/сек
    Каналы : 2 канала
    ChannelLayout : L R
    Частота : 48, 0 КГц
    Частота кадров : 31, 250 кадров/сек (1536 SPF)
    Метод сжатия : С потерями
    Размер потока : 209 Мбайт (9%)
    Выравнивание : Разделение по промежуткам
    Продолжительность промежутка : 42 мс. (1, 00 видеокадр)
    Время предзагрузки промежутка : 500 мс.
    Заголовок : Профессиональный (многоголосый закадровый) Кинопоказ
    ServiceKind/String : Complete Main
    Аудио #2
    Идентификатор : 2
    Формат : AC-3
    Формат/Информация : Audio Coding 3
    Коммерческое название : Dolby Digital
    Идентификатор кодека : 2000
    Продолжительность : 2 ч. 32 м.
    Вид битрейта : Постоянный
    Битрейт : 448 Кбит/сек
    Каналы : 6 каналов
    ChannelLayout : L R C LFE Ls Rs
    Частота : 48, 0 КГц
    Частота кадров : 31, 250 кадров/сек (1536 SPF)
    Метод сжатия : С потерями
    Размер потока : 488 Мбайт (22%)
    Выравнивание : Разделение по промежуткам
    Продолжительность промежутка : 42 мс. (1, 00 видеокадр)
    Время предзагрузки промежутка : 500 мс.
    Заголовок : Французский
    ServiceKind/String : Complete Main

    Скриншоты для ознакомления



    Все одноименные релизы в Клубе Время раздачи: 24/7 (до появления первых 3-5 скачавших)

    Онлайн видео Рождественская сказка



    Рождественская сказка/Un conte de Noel (2008) HDRip [MVO]
    Рейтинг →
     (голосов: 1, оценка 5/5, голосовать можно 1 раз )

    Другие торренты по теме:

  • Рождественская сказка / Un conte de Noel (2008) HDTV [H.264 / 1080i] скачать через торрент бесплатно
  • Новая рождественская сказка / Scrooged (1988) BDRip [H.264]
  • Новая рождественская сказка / Scrooged (1988) BDRip [H.264 / 720p]
  • Рождественская свадебная сказка / A Christmas Wedding Tail (2011) DVDRip скачать через торрент бесплатно


    • Комментарии (0):

      Информация

      Информация

        Посетители, находящиеся в группе Гости, не могут оставлять комментарии в данной новости.

        ↓ Меню




        ↓ Опрос

        Вы добавили сайт в закладки?
        Да
        Нет


        Популярное

        Полицейский с Рублёвки. Новогодний беспредел 2 (2019) CamRip [AD]

        (скачиваний: 1815)
        Властелин колец: Трилогия / The Lord of the Rings: Trilogy (2001,2002,2003) BDRip [H.264] [Extended Editions] скачать через торрент бесплатно

        (скачиваний: 663)
        Властелин колец / The Lord of the Rings (2001,2002,2003) BDRip [Extended Edition] [H.264 / 1080p-LQ] [Hi10P]

        (скачиваний: 655)
        Начало / Inception (2010) BDRip [H.265 / 1080p]

        (скачиваний: 629)
        Властелин колец / The Lord of the Rings (2001,2002,2003) BDRip [1080p] [Extended Edition] [Трилогия]

        (скачиваний: 607)
        Квартирник НТВ у Маргулиса. Новогодний выпуск (31.12.2019) WEB-DL [H.264 / 1080p-LQ]

        (скачиваний: 452)
        Каникулы off-line (2018) WEBRip

        (скачиваний: 432)
        Хоббит: Трилогия / The Hobbit: Trilogy (2012, 2013, 2014) BDRip [H.265 / 1080p-LQ] [10-bit] [Расширенная версия]

        (скачиваний: 396)
        Властелин колец / The Lord of the Rings (2001,2002,2003) BDRip [1080p] [Extended Edition] [Трилогия] скачать через торрент бесплатно

        (скачиваний: 264)
        Во все тяжкие / Breaking Bad (2008-2013) BDRip [H.264 / 1080p] (сезон 1-5, серии 1-62 из 62) Кубик в Кубе, LostFilm скачать через торрент бесплатно

        (скачиваний: 252)