.
Авторизация | Регистрация
bitok.xyz
» » JO - Soapte (2015) WEB-DL [H.264 / 1080p-LQ] торрент скачать бесплатно


    JO - Soapte (2015) WEB-DL [H.264 / 1080p-LQ] торрент скачать бесплатно

    Дата: 25-12-2019, 05:00 | .torrent скачали: 0

    JO - Soapte (2015) WEB-DL [H.264 / 1080p-LQ]Производство: Cat Music
    Жанр: Pop

    Описание

    Cat Music - основной игрок в румынской музыкальной индустрии, представляющий самых влиятельных и успешных артистов Румынии. Вашему внимаю представлен очередной клип не только знаменитой, но и прекрасной певицы JO.
    Релиз от: SySat
    Качество видео: WEB-DL
    Продолжительность: 00: 03: 35
    Видео: AVC/H.264, 1920x664, ~3 629 Kbps
    Аудио: AC3, 2 ch, 256 Kbps
    Format : Matroska
    Format version : Version 4
    File size : 100.0 MiB
    Duration : 3 min 35 s
    Overall bit rate : 3 896 kb/s
    Encoded date : UTC 2019-12-23 21: 20: 04
    Writing application : mkvmerge v41.0.0 (\'Smarra\') 64-bit
    Writing library : libebml v1.3.9 + libmatroska v1.5.2
    Cover : Yes
    Attachments : cover.jpg
    Video
    ID : 1
    Format : AVC
    Format/Info : Advanced Video Codec
    Format profile : High@L4.1
    Format settings : CABAC/4 Ref Frames
    Format settings, CABAC : Yes
    Format settings, ReFrames : 4 frames
    Codec ID : V_MPEG4/ISO/AVC
    Duration : 3 min 35 s
    Bit rate : 3 629 kb/s
    Width : 1 920 pixels
    Height : 664 pixels
    Display aspect ratio : 2.874
    Frame rate mode : Constant
    Frame rate : 25.000 FPS
    Color space : YUV
    Chroma subsampling : 4: 2: 0
    Bit depth : 8 bits
    Scan type : Progressive
    Bits/(Pixel*Frame) : 0.114
    Stream size : 93.0 MiB (93%)
    Title : Румыния
    Default : Yes
    Forced : No
    Color range : Limited
    Color primaries : BT.709
    Transfer characteristics : BT.709
    Matrix coefficients : BT.709
    Audio
    ID : 2
    Format : AC-3
    Format/Info : Audio Coding 3
    Commercial name : Dolby Digital
    Codec ID : A_AC3
    Duration : 3 min 35 s
    Bit rate mode : Constant
    Bit rate : 256 kb/s
    Channel(s) : 2 channels
    Channel layout : L R
    Sampling rate : 44.1 kHz
    Frame rate : 28.711 FPS (1536 SPF)
    Bit depth : 16 bits
    Compression mode : Lossy
    Stream size : 6.57 MiB (7%)
    Service kind : Complete Main
    Default : Yes
    Forced : No

    Скриншоты для ознакомления



    Все одноименные релизы в Клубе
    Время раздачи: Ненормированное 24/7

    Онлайн видео JO - Soapte (2015) WEB-DL [H.264



    JO - Soapte (2015) WEB-DL [H.264/1080p-LQ]
    Рейтинг →
     (голосов: 1, оценка 3/5, голосовать можно 1 раз )

    Другие торренты по теме:



      Комментарии (0):

      Информация

      Информация

        Посетители, находящиеся в группе Гости, не могут оставлять комментарии в данной новости.

        ↓ Меню




        ↓ Опрос

        Вы добавили сайт в закладки?
        Да
        Нет


        Популярное

        Полицейский с Рублёвки. Новогодний беспредел 2 (2019) CamRip [AD]

        (скачиваний: 1815)
        Властелин колец: Трилогия / The Lord of the Rings: Trilogy (2001,2002,2003) BDRip [H.264] [Extended Editions] скачать через торрент бесплатно

        (скачиваний: 663)
        Властелин колец / The Lord of the Rings (2001,2002,2003) BDRip [Extended Edition] [H.264 / 1080p-LQ] [Hi10P]

        (скачиваний: 655)
        Начало / Inception (2010) BDRip [H.265 / 1080p]

        (скачиваний: 629)
        Властелин колец / The Lord of the Rings (2001,2002,2003) BDRip [1080p] [Extended Edition] [Трилогия]

        (скачиваний: 607)
        Квартирник НТВ у Маргулиса. Новогодний выпуск (31.12.2019) WEB-DL [H.264 / 1080p-LQ]

        (скачиваний: 452)
        Каникулы off-line (2018) WEBRip

        (скачиваний: 432)
        Хоббит: Трилогия / The Hobbit: Trilogy (2012, 2013, 2014) BDRip [H.265 / 1080p-LQ] [10-bit] [Расширенная версия]

        (скачиваний: 396)
        Властелин колец / The Lord of the Rings (2001,2002,2003) BDRip [1080p] [Extended Edition] [Трилогия] скачать через торрент бесплатно

        (скачиваний: 264)
        Во все тяжкие / Breaking Bad (2008-2013) BDRip [H.264 / 1080p] (сезон 1-5, серии 1-62 из 62) Кубик в Кубе, LostFilm скачать через торрент бесплатно

        (скачиваний: 252)