.
Авторизация | Регистрация
bitok.xyz
» » А.Д. (2009) WEBRip [H.264 / 1080p-LQ] (сезон 1, серии 1-4 из 4) торрент скачать бесплатно


    А.Д. (2009) WEBRip [H.264 / 1080p-LQ] (сезон 1, серии 1-4 из 4) торрент скачать бесплатно

    Дата: 25-12-2019, 05:00 | .torrent скачали: 13

    А.Д. (2009) WEBRip [H.264 / 1080p-LQ] (сезон 1, серии 1-4 из 4)Производство: Россия/Кинокомпания АСДС
    Жанр: триллер
    Режиссер: Дмитрий Светозаров

    Актеры
    Данила Козловский, Евгения Игумнова, Сергей Барковский, Рудольф Фурманов, Сергей Кошонин, Анна Фомина, Павел Поляков, Влад Мурох, Денис Старков, Галина Тугушева и др.

    Описание

    Модный московский Фотограф получает невиданный по загадочности и стоимости заказ: пять моделей восточного типа в стилизованных костюмах должны позировать ему на фоне руин самого западного по духу города России — Петербурга, причем последовательность мест съемки строго определена. Выполняя экзотическую задачу, Фотограф понимает, что на самом деле Заказчика снимки не интересуют. Ему нужно заполучить одну фотографическую реликвию начала XX века, которая хранится у Фотографа.

    Возраст: 16+ (зрителям, достигшим 16 лет)
    Релиз от: Алехаndr
    Продолжительность: ~00: 52: 00 серия
    Качество видео: WEBRip
    Видео: AVC/H.264, 1920x1080 (16: 9), ~5000 Kbps
    Аудио: AC3, 2 ch, 192 Kbps
    Общее
    Уникальный идентификатор : 18218844940740928512126117784171745207 (0xDB4D268314AB5DF2B1BB882ED6A8FB7)
    Полное имя : D: А.Д. (2009).by.АлехаndrА.Д.Серия 1.by.Алехаndr.mkv
    Формат : Matroska
    Версия формата : Version 4
    Размер файла : 1, 94 Гбайт
    Продолжительность : 53 м. 22 с.
    Общий поток : 5194 Кбит/сек
    Программа кодирования : Lavf57.71.100
    Библиотека кодирования : Lavf57.71.100
    ErrorDetectionType : Per level 1
    Видео
    Идентификатор : 1
    Формат : AVC
    Формат/Информация : Advanced Video Codec
    Профиль формата : High@L4
    Настройки формата : CABAC/3 Ref Frames
    Параметр CABAC формата : Да
    Параметр RefFrames формата : 3 кадра
    Идентификатор кодека : V_MPEG4/ISO/AVC
    Продолжительность : 53 м. 22 с.
    Битрейт : 5000 Кбит/сек
    Ширина : 1920 пикселей
    Высота : 1080 пикселей
    Соотношение сторон : 16: 9
    Режим частоты кадров : Постоянный
    Частота кадров : 24, 000 кадра/сек
    Цветовое пространство : YUV
    Субдискретизация насыщенности : 4: 2: 0
    Битовая глубина : 8 бит
    Тип развёртки : Прогрессивная
    Бит/(Пиксели*Кадры) : 0.100
    Размер потока : 1, 83 Гбайт (94%)
    Библиотека кодирования : x264 core 142 r2479 dd79a61
    Настройки программы : cabac=1/ref=3/deblock=1: 0: 0/analyse=0x3: 0x133/me=hex/subme=6/psy=1/psy_rd=1.00: 0.00/mixed_ref=0/me_range=16/chroma_me=1/trellis=1/8x8dct=1/cqm=0/deadzone=21, 11/fast_pskip=0/chroma_qp_offset=-2/threads=12/lookahead_threads=2/sliced_threads=0/nr=0/decimate=1/interlaced=0/bluray_compat=0/constrained_intra=0/bframes=3/b_pyramid=1/b_adapt=2/b_bias=0/direct=1/weightb=1/open_gop=0/weightp=2/keyint=96/keyint_min=49/scenecut=0/intra_refresh=0/rc_lookahead=40/rc=2pass/mbtree=1/bitrate=5000/ratetol=1.0/qcomp=0.60/qpmin=0/qpmax=69/qpstep=4/cplxblur=20.0/qblur=0.5/ip_ratio=1.40/aq=1: 1.00
    Default : Да
    Forced : Нет
    Цветовой диапазон : Limited
    Основные цвета : BT.709
    Характеристики трансфера : BT.709
    Коэффициенты матрицы : BT.709
    Аудио
    Идентификатор : 2
    Формат : AC-3
    Формат/Информация : Audio Coding 3
    Коммерческое название : Dolby Digital
    Идентификатор кодека : A_AC3
    Продолжительность : 53 м. 22 с.
    Вид битрейта : Постоянный
    Битрейт : 192 Кбит/сек
    Каналы : 2 канала
    ChannelLayout : L R
    Частота : 48, 0 КГц
    Частота кадров : 31, 250 кадров/сек (1536 SPF)
    Битовая глубина : 32 бит
    Метод сжатия : С потерями
    Задержка видео : -83 мс.
    Размер потока : 73, 3 Мбайт (4%)
    ServiceKind/String : Complete Main
    Default : Да
    Forced : Нет

    Скриншоты для ознакомления



    Все одноименные релизы в Клубе
    Время раздачи: 24/7 (круглосуточно) (до появления первых 3-5 скачавших)

    Онлайн видео А.Д. (2009) WEBRip [H.264



    А.Д. (2009) WEBRip [H.264/1080p-LQ] (сезон 1, серии 1-4 из 4)
    Рейтинг →
     (голосов: 1, оценка 4/5, голосовать можно 1 раз )

    Другие торренты по теме:

  • Улица потрошителя / Ripper Street (2016) WEBRip WEBRip [H.264 / 720p-LQ] (сезон 4, серии 1-3 из 8) NewStudio (обновляемая)
  • Малышарики (2015-2017) WEBRip [H.264 / 1080p-LQ] (серии 1-76) + Песенки WEBRip [H.264 / 720p-LQ] (серия 1-53) [Обновлямая]
  • Reply Hamatora / Re: Hamatora / Хаматора 2 [2014, TV, 11 из 12] WEBRip 720p Raw+Rus
  • Tokyo ESP / Токийские Эсперы [2014, TV, 11 из 12] WEBRip Hi10p 720p Raw+Rus
  • Голодные игры: Сойка-пересмешница. Часть I / The Hunger Games: Mockingjay - Part 1 (2014) WEBRip [1080p] [Трейлер]
  • Оставленные / Left Behind (2014) WEBRip [1080p] [Трейлер]
  • Джон Уик / John Wick (2014) WEBRip [1080p] [Трейлер]
  • Дракула / Dracula Untold (2014) WEBRip [1080p] [Трейлер]


    • Комментарии (0):

      Информация

      Информация

        Посетители, находящиеся в группе Гости, не могут оставлять комментарии в данной новости.

        ↓ Меню




        ↓ Опрос

        Вы добавили сайт в закладки?
        Да
        Нет


        Популярное

        Полицейский с Рублёвки. Новогодний беспредел 2 (2019) CamRip [AD]

        (скачиваний: 1815)
        Властелин колец: Трилогия / The Lord of the Rings: Trilogy (2001,2002,2003) BDRip [H.264] [Extended Editions] скачать через торрент бесплатно

        (скачиваний: 663)
        Властелин колец / The Lord of the Rings (2001,2002,2003) BDRip [Extended Edition] [H.264 / 1080p-LQ] [Hi10P]

        (скачиваний: 655)
        Начало / Inception (2010) BDRip [H.265 / 1080p]

        (скачиваний: 629)
        Властелин колец / The Lord of the Rings (2001,2002,2003) BDRip [1080p] [Extended Edition] [Трилогия]

        (скачиваний: 607)
        Квартирник НТВ у Маргулиса. Новогодний выпуск (31.12.2019) WEB-DL [H.264 / 1080p-LQ]

        (скачиваний: 452)
        Каникулы off-line (2018) WEBRip

        (скачиваний: 432)
        Хоббит: Трилогия / The Hobbit: Trilogy (2012, 2013, 2014) BDRip [H.265 / 1080p-LQ] [10-bit] [Расширенная версия]

        (скачиваний: 396)
        Властелин колец / The Lord of the Rings (2001,2002,2003) BDRip [1080p] [Extended Edition] [Трилогия] скачать через торрент бесплатно

        (скачиваний: 264)
        Во все тяжкие / Breaking Bad (2008-2013) BDRip [H.264 / 1080p] (сезон 1-5, серии 1-62 из 62) Кубик в Кубе, LostFilm скачать через торрент бесплатно

        (скачиваний: 252)