.
Авторизация | Регистрация
bitok.xyz
» » Бар «На грудь» (2019) WEBRip (сезон 2, серии 1-5 из 8) (обновляемая) торрент скачать бесплатно


    Бар «На грудь» (2019) WEBRip (сезон 2, серии 1-5 из 8) (обновляемая) торрент скачать бесплатно

    Дата: 25-12-2019, 05:00 | .torrent скачали: 1

    Бар «На грудь» (2019) WEBRip (сезон 2, серии 1-5 из 8) (обновляемая)Производство: Россия/Киностудия МИМ
    Жанр: комедия
    Режиссер: Ирина Вилкова

    Актеры
    Денис Пьянов, Татьяна Лазарева, Алексей Гуськов, Яна Троянова, Вера Фомина, Антон Сухарев, Кирилл Полухин, Анна Иванина, Дмитрий Аверин, Ирина Вилкова, Михаил Тройник и др.

    Описание

    Продолжение сериала о месте, где выслушают любого.
    Во втором сезон любимого сериалае страсти накаляются, а посетителей становится больше. К маникюрше Марине (Анна Иванина) приезжает жених (Михаил Тройник) и мама (Татьяна Лазарева), к бандиту Валере (Кирилл Полухин) возвращается первая любовь (Яна Троянова), Владлен (Антон Сухарев) решает спасти человечество, пенсионер Бугров (Андрей Шарков) узрит Бога, феминистка Поля тоже узрит Бога (Иван Купреенко) и сделается от него беременной, аккордеонист Аркадий (Денис Пьянов) потеряет мать (Татьяна Малыщицкая), но обретет отца (Алексей Гуськов)… и еще много-много кармических узлов завяжется и развяжется на глазах уставшей и очень беременной барменши (которая в этом сезон любимого сериалае поменяла фамилию на Анна Гольдфельд)

    Возраст: 18+ (зрителям, достигшим 18 лет. запрещено для детей)
    Дата российской премьеры: 10 декабря 2019
    Релиз от: Алехаndr
    Продолжительность: ~00: 10: 00 серия
    Качество видео: WEBRip
    Внимание! Присутствует ненормативная лексика!
    Видео: Xvid, 720x400 (16: 9), ~1885 Kbps
    Аудио: AC3, 2 ch, 192 Kbps
    Общее
    Полное имя : D: Bar.na.grud.S02 (2019).by.АлехаndrBar.na.grud.S02.E01.by.Алехаndr.avi
    Формат : AVI
    Формат/Информация : Audio Video Interleave
    Размер файла : 127 Мбайт
    Продолжительность : 8 м. 31 с.
    Общий поток : 2089 Кбит/сек
    Программа кодирования : Lavf58.29.100
    Видео
    Идентификатор : 0
    Формат : MPEG-4 Visual
    Профиль формата : Advanced Simple@L5
    Настройки формата : BVOP2
    Параметр BVOP формата : 2
    Параметр QPel формата : Нет
    Параметр GMC формата : Без точки перехода
    Параметр матрицы формата : Default (MPEG)
    Идентификатор кодека : XVID
    Идентификатор кодека/Подсказка : XviD
    Продолжительность : 8 м. 31 с.
    Битрейт : 1886 Кбит/сек
    Ширина : 720 пикселей
    Высота : 400 пикселей
    Соотношение сторон : 16: 9
    Частота кадров : 25, 000 кадров/сек
    Цветовое пространство : YUV
    Субдискретизация насыщенности : 4: 2: 0
    Битовая глубина : 8 бит
    Тип развёртки : Прогрессивная
    Метод сжатия : С потерями
    Бит/(Пиксели*Кадры) : 0.262
    Размер потока : 115 Мбайт (90%)
    Библиотека кодирования : XviD 67
    Аудио
    Идентификатор : 1
    Формат : AC-3
    Формат/Информация : Audio Coding 3
    Коммерческое название : Dolby Digital
    Идентификатор кодека : 2000
    Продолжительность : 8 м. 31 с.
    Вид битрейта : Постоянный
    Битрейт : 192 Кбит/сек
    Каналы : 2 канала
    ChannelLayout : L R
    Частота : 48, 0 КГц
    Частота кадров : 31, 250 кадров/сек (1536 SPF)
    Битовая глубина : 16 бит
    Метод сжатия : С потерями
    Размер потока : 11, 7 Мбайт (9%)
    Выравнивание : Соединение по промежуткам
    Продолжительность промежутка : 32 мс. (0, 80 видеокадр)
    ServiceKind/String : Complete Main


    Онлайн видео Бар «На грудь» (2019) WEBRip (сезон любимого сериала 2, серии 1



    Бар «На грудь» (2019) WEBRip (сезон 2, серии 1-5 из 8) (обновляемая)
    Рейтинг →
     (голосов: 1, оценка 5/5, голосовать можно 1 раз )

    Другие торренты по теме:

  • На грудь (2017) WEBRip [H.264 / 1080p-LQ]
  • Бар. На грудь (2018) WEBRip [H.264 / 720p-LQ] (серии 1-2 из ) (обновляемая)
  • Бар «На грудь» (2019) WEBRip [H.264 / 1080p-LQ] (сезон 2, серии 1-5 из 8) (обновляемая)
  • Бар «На грудь» (2018) WEBRip [H.264 / 2160p-LQ] (сезон 1, серии 1-8 из 8)
  • Бар «На грудь» (2018) WEBRip (сезон 1, серии 1-8 из 8)


    • Комментарии (0):

      Информация

      Информация

        Посетители, находящиеся в группе Гости, не могут оставлять комментарии в данной новости.

        ↓ Меню




        ↓ Опрос

        Вы добавили сайт в закладки?
        Да
        Нет


        Популярное