.
Авторизация | Регистрация
bitok.xyz
» » Сбой программы / Segfault (2018) WEB-DLRip [H.264 / 720p-LQ] [MVO] [AD] торрент скачать бесплатно


    Сбой программы / Segfault (2018) WEB-DLRip [H.264 / 720p-LQ] [MVO] [AD] торрент скачать бесплатно

    Дата: 26-12-2019, 05:00 | .torrent скачали: 1

    Сбой программы / Segfault (2018) WEB-DLRip [H.264 / 720p-LQ] [MVO] [AD]Производство: США/Finder Scope Films, Safier Entertainment
    Жанр: Боевик, триллер
    Режиссер: Роберт Пашал мл.

    Актеры
    Шеннон Лусио, Кэсси Ши Уотсон, Стивен Броди, Джо Нэммерс, Эрик Хансон, Брайан Питтс, Лиз Карденас, Грэйсон Берри, Крэйг Коул, Майк Лобо Дэниэл

    Описание

    Девушка приходит в себя в номере отеля рядом с трупом незнакомого человека и понимает, что не помнит совершенно ничего, включая своё имя. При этом становится понятно, что за ней охотятся какие-то обученные люди из таинственной организации, а единственное предложение помощи приходит от девушки, которая называет себя её сестрой.

    Дата мировой премьеры: 10 сентября 2018
    Продолжительность: 01: 23: 55
    Качество видео: WEB-DLRip
    Перевод: Многоголосый закадровый, профессиональный (Синема УС)
    Субтитры: Отсутствуют
    Реклама: Присутствует баннер.
    Видео: AVC/H.264, 1280x640, ~5197 Kbps
    Аудио: AC-3, 2 ch, 384 Kbps
    Общее
    Полное имя : D: NNMСбой программыSegfault.2019.WEB-DLRip.720p-LQ.mkv
    Формат : Matroska
    Версия формата : Version 2
    Размер файла : 3, 34 Гбайт
    Продолжительность : 1 ч. 23 м.
    Режим общего битрейта : Переменный
    Общий поток : 5694 Кбит/сек
    Программа кодирования : libmatroska 1.4.1
    Библиотека кодирования : SolveigMM Matroska Muxer Version 1.0.1502.31
    Видео
    Идентификатор : 1
    Формат : AVC
    Формат/Информация : Advanced Video Codec
    Профиль формата : High@L4.1
    Настройки формата : CABAC/4 Ref Frames
    Параметр CABAC формата : Да
    Параметр RefFrames формата : 4 кадра
    Идентификатор кодека : V_MPEG4/ISO/AVC
    Продолжительность : 1 ч. 23 м.
    Вид битрейта : Переменный
    Битрейт : 5197 Кбит/сек
    Номинальный битрейт : 6200 Кбит/сек
    Максимальный битрейт : 6200 Кбит/сек
    Ширина : 1280 пикселей
    Высота : 640 пикселей
    Соотношение сторон : 2, 000
    Режим частоты кадров : Постоянный
    Частота кадров : 23, 976 (24000/1001) кадра/сек
    Стандарт вещания : Component
    Цветовое пространство : YUV
    Субдискретизация насыщенности : 4: 2: 0
    Битовая глубина : 8 бит
    Тип развёртки : Прогрессивная
    Бит/(Пиксели*Кадры) : 0.265
    Размер потока : 3, 05 Гбайт (91%)
    Default : Нет
    Forced : Нет
    Цветовой диапазон : Limited
    Основные цвета : BT.709
    Характеристики трансфера : BT.709
    Коэффициенты матрицы : BT.709
    Аудио
    Идентификатор : 2
    Формат : AC-3
    Формат/Информация : Audio Coding 3
    Коммерческое название : Dolby Digital
    Идентификатор кодека : A_AC3
    Продолжительность : 1 ч. 23 м.
    Вид битрейта : Постоянный
    Битрейт : 384 Кбит/сек
    Каналы : 2 канала
    ChannelLayout : L R
    Частота : 48, 0 КГц
    Частота кадров : 31, 250 кадров/сек (1536 SPF)
    Метод сжатия : С потерями
    Размер потока : 231 Мбайт (7%)
    Язык : Russian
    ServiceKind/String : Complete Main
    Default : Нет
    Forced : Нет

    Скриншоты для ознакомления



    Все одноименные релизы в Клубе Время раздачи: 24/7 (до появления первых 3-5 скачавших)

    Онлайн видео Сбой программы



    Сбой программы/Segfault (2018) WEB-DLRip [H.264/720p-LQ] [MVO] [AD]
    Рейтинг →
     (голосов: 1, оценка 5/5, голосовать можно 1 раз )

    Другие торренты по теме:

  • Сбой / Glitch (2015) WEB-DL [H.264 / 720p-LQ] (сезон 1, серии 1-6 из 6) (Project Web Money) скачать через торрент бесплатно
  • Сбой / Glitch (2015) WEB-DLRip (сезон 1, серии 1-6 из 6) (Project Web Money) скачать через торрент бесплатно


    • Комментарии (0):

      Информация

      Информация

        Посетители, находящиеся в группе Гости, не могут оставлять комментарии в данной новости.

        ↓ Меню




        ↓ Опрос

        Вы добавили сайт в закладки?
        Да
        Нет


        Популярное

        Полицейский с Рублёвки. Новогодний беспредел 2 (2019) CamRip [AD]

        (скачиваний: 1815)
        Властелин колец: Трилогия / The Lord of the Rings: Trilogy (2001,2002,2003) BDRip [H.264] [Extended Editions] скачать через торрент бесплатно

        (скачиваний: 663)
        Властелин колец / The Lord of the Rings (2001,2002,2003) BDRip [Extended Edition] [H.264 / 1080p-LQ] [Hi10P]

        (скачиваний: 655)
        Начало / Inception (2010) BDRip [H.265 / 1080p]

        (скачиваний: 629)
        Властелин колец / The Lord of the Rings (2001,2002,2003) BDRip [1080p] [Extended Edition] [Трилогия]

        (скачиваний: 607)
        Квартирник НТВ у Маргулиса. Новогодний выпуск (31.12.2019) WEB-DL [H.264 / 1080p-LQ]

        (скачиваний: 452)
        Каникулы off-line (2018) WEBRip

        (скачиваний: 432)
        Хоббит: Трилогия / The Hobbit: Trilogy (2012, 2013, 2014) BDRip [H.265 / 1080p-LQ] [10-bit] [Расширенная версия]

        (скачиваний: 396)
        Властелин колец / The Lord of the Rings (2001,2002,2003) BDRip [1080p] [Extended Edition] [Трилогия] скачать через торрент бесплатно

        (скачиваний: 264)
        Во все тяжкие / Breaking Bad (2008-2013) BDRip [H.264 / 1080p] (сезон 1-5, серии 1-62 из 62) Кубик в Кубе, LostFilm скачать через торрент бесплатно

        (скачиваний: 252)