.
Авторизация | Регистрация
bitok.xyz
» » Маленькая Италия / Little Italy (2018) BDRip торрент скачать бесплатно


    Маленькая Италия / Little Italy (2018) BDRip торрент скачать бесплатно

    Дата: 26-12-2019, 05:00 | .torrent скачали: 0

    Маленькая Италия / Little Italy (2018) BDRipПроизводство: Канада, США/Firsttake Entertainment
    Жанр: Мелодрама, Комедия
    Режиссер: Дональд Питри

    Актеры
    Хейден Кристенсен, Эмма Робертс, Алисса Милано, Дэнни Айелло, Андреа Мартин, Джейн Сеймур, Гэри Басараба, Адам Феррара, Эндрю Фунг, Васант Саранга

    Описание

    Родители Лео, как и родители Никки, приехали в Канаду из Италии и открыли здесь свою пиццерию. Между двумя ресторанами и двумя семьями устанавливается ожесточенная конкуренция. Тем временем между Лео и Никки, вопреки всему, завязывается роман

    Рейтинг MPAA: R (лицам до 17 лет обязательно присутствие взрослого)
    Дата мировой премьеры: 17.08.18
    Продолжительность: 01: 41: 29
    Качество видео: BDRip
    Перевод: Дублированный (iTunes)
    Субтитры: Отсутствуют
    Видео: Xvid, 720x304, ~1603 Kbps
    Аудио: AC3, 6 ch, 384 KbpsОбщее
    Общее
    Полное имя : D: NNMМаленькая ИталияLittle.Italy.2018.BDRip.avi
    Формат : AVI
    Формат/Информация : Audio Video Interleave
    Размер файла : 1, 41 Гбайт
    Продолжительность : 1 ч. 41 м.
    Общий поток : 1996 Кбит/сек
    Программа кодирования : VirtualDubMod 1.5.10.3 |www.virtualdub-fr.org|| (build 2550/release)
    Библиотека кодирования : VirtualDubMod build 2550/release
    Видео
    Идентификатор : 0
    Формат : MPEG-4 Visual
    Профиль формата : Advanced Simple@L5
    Настройки формата : BVOP1/Custom Matrix
    Параметр BVOP формата : 1
    Параметр QPel формата : Нет
    Параметр GMC формата : Без точки перехода
    Параметр матрицы формата : Выборочная
    Идентификатор кодека : XVID
    Идентификатор кодека/Подсказка : XviD
    Продолжительность : 1 ч. 41 м.
    Битрейт : 1603 Кбит/сек
    Ширина : 720 пикселей
    Высота : 304 пикселя
    Соотношение сторон : 2, 35: 1
    Частота кадров : 23, 976 (24000/1001) кадра/сек
    Цветовое пространство : YUV
    Субдискретизация насыщенности : 4: 2: 0
    Битовая глубина : 8 бит
    Тип развёртки : Прогрессивная
    Метод сжатия : С потерями
    Бит/(Пиксели*Кадры) : 0.305
    Размер потока : 1, 14 Гбайт (80%)
    Библиотека кодирования : XviD 73
    Аудио
    Идентификатор : 1
    Формат : AC-3
    Формат/Информация : Audio Coding 3
    Коммерческое название : Dolby Digital
    Идентификатор кодека : 2000
    Продолжительность : 1 ч. 41 м.
    Вид битрейта : Постоянный
    Битрейт : 384 Кбит/сек
    Каналы : 6 каналов
    ChannelLayout : L R C LFE Ls Rs
    Частота : 48, 0 КГц
    Частота кадров : 31, 250 кадров/сек (1536 SPF)
    Метод сжатия : С потерями
    Размер потока : 279 Мбайт (19%)
    Выравнивание : Разделение по промежуткам
    Продолжительность промежутка : 42 мс. (1, 00 видеокадр)
    Время предзагрузки промежутка : 500 мс.
    ServiceKind/String : Complete Main

    Скриншоты для ознакомления



    Все одноименные релизы в Клубе
    Время раздачи: Пн-Пт с 18: 00 до 22: 00 (до появления первых 3-5 скачавших)

    Онлайн видео Маленькая Италия



    Маленькая Италия/Little Italy (2018) BDRip
    Рейтинг →
     (голосов: 1, оценка 5/5, голосовать можно 1 раз )

    Другие торренты по теме:

  • Маленькая Италия / Little Italy (2018) WEB-DL [H.264 / 1080p-LQ] [MVO]
  • Маленькая Италия / Little Italy (2018) BDRemux [H.264 / 1080p] [EN / EN, Sp Sub]
  • Маленькая Италия / Little Italy (2018) HDRip [MVO]
  • Маленькая Италия / Little Italy (2018) BDRip [H.264 / 1080p] [MVO] [PR]


    • Комментарии (0):

      Информация

      Информация

        Посетители, находящиеся в группе Гости, не могут оставлять комментарии в данной новости.

        ↓ Меню




        ↓ Опрос

        Вы добавили сайт в закладки?
        Да
        Нет


        Популярное