.
Авторизация | Регистрация
bitok.xyz
» » Боевик / Action (2019) WEBRip [MVO] торрент скачать бесплатно

    Боевик / Action (2019) WEBRip [MVO] торрент скачать бесплатно

    Дата: 26-12-2019, 05:00 | .torrent скачали: 0

    Боевик / Action (2019) WEBRip [MVO]Производство: Индия, Trident Arts
    Жанр: боевик
    Режиссер: Сундар С.
    Продюсер: R. Ravindran, Murali Krishnan

    Актеры
    Вишал, Таманна Бхатия, Айшварья Лекшми, Рамки, Йоги Бабу, Аканкша Пури, Шайя Сингх, Кабир, Sha Ra, Арав Чоудхарри

    Описание

    Действие фильма разворачивается вокруг офицера индийской армии Субаша, который оказался вовлечён в расследование, пожалуй, самой громкой террористической атаки в истории страны. Некая подпольная организация подорвала бомбу прямо во время крупного политического выступления. В результате этого теракта погиб лидер нации и ещё один уважаемый политик, которому многие прочили кресло премьер-министра. Конечно же, индийские спецслужбы активизировали свою деятельность сразу же после трагедии. Неожиданно Субаш сталкивается с агентами, работающими под прикрытием. Они трудятся в интересах других государств, и никто не знает, что они замышляют…

    Премьера (мир): 15 ноября 2019
    Продолжительность: 02: 30: 58
    Качество видео: WEBRip
    Перевод: Многоголосый любительский
    Субтитры: отсутствуют
    Видео: Xvid, 720x306, ~1434 Kbps
    Аудио: AAC, 2 ch, 208 Kbps
    Общее
    Полное имя : I: Action.2019.WebRip.avi
    Формат : AVI
    Формат/Информация : Audio Video Interleave
    Профиль формата : OpenDML
    Размер файла : 1, 75 Гбайт
    Продолжительность : 2 ч. 30 м.
    Общий поток : 1657 Кбит/сек
    Программа кодирования : Lavf57.71.100
    Видео
    Идентификатор : 0
    Формат : MPEG-4 Visual
    Профиль формата : Advanced Simple@L5
    Параметр BVOP формата : Нет
    Параметр QPel формата : Нет
    Параметр GMC формата : Без точки перехода
    Параметр матрицы формата : Default (H.263)
    Идентификатор кодека : XVID
    Идентификатор кодека/Подсказка : XviD
    Продолжительность : 2 ч. 30 м.
    Битрейт : 1434 Кбит/сек
    Ширина : 720 пикселей
    Высота : 306 пикселей
    Соотношение сторон : 2, 35: 1
    Частота кадров : 30, 000 кадров/сек
    Цветовое пространство : YUV
    Субдискретизация насыщенности : 4: 2: 0
    Битовая глубина : 8 бит
    Тип развёртки : Прогрессивная
    Метод сжатия : С потерями
    Бит/(Пиксели*Кадры) : 0.217
    Размер потока : 1, 51 Гбайт (87%)
    Библиотека кодирования : XviD 67
    Аудио
    Идентификатор : 1
    Формат : AAC
    Формат/Информация : Advanced Audio Codec
    Версия формата : Version 4
    Профиль формата : LC
    Режим смешивания : ADTS
    Идентификатор кодека : FF
    Продолжительность : 2 ч. 30 м.
    Битрейт : 208 Кбит/сек
    Каналы : 2 канала
    Расположение каналов : Front: L R
    Частота : 44, 1 КГц
    Частота кадров : 43, 066 кадра/сек (1024 spf)
    Метод сжатия : С потерями
    Размер потока : 225 Мбайт (13%)
    Выравнивание : Соединение по промежуткам
    Продолжительность промежутка : 23 мс. (0, 70 видеокадр)

    Скриншоты для ознакомления



    Все одноименные релизы в Клубе
    Время раздачи: Пн-Пт с 18: 00 до 22: 00, Вс с 09: 00 до 22: 30 (до появления первых 3-5 скачавших)

    Онлайн видео Боевик


    Прямая ссылка скачивания через uTorrent


    Боевик/Action (2019) WEBRip [MVO]
    Рейтинг →
     (голосов: 1, оценка 4/5, голосовать можно 1 раз )

    Другие торренты по теме:

  • Боевик Джексон / Action Jackson (1988) BDRip [720p] скачать через торрент бесплатно
  • Боевик Джексон / Action Jackson (2014) WEB-DL [H.264 / 720p-LQ]
  • Боевик Джексон / Джексон Мотор / Action Jackson (1988) BDRip [H.264 / 720p]


    • Комментарии (0):

      Информация

      Информация

        Посетители, находящиеся в группе Гости, не могут оставлять комментарии в данной новости.

        ↓ Меню




        ↓ Опрос

        Вы добавили сайт в закладки?
        Да
        Нет


        Популярное