.
Авторизация | Регистрация
bitok.xyz
» » Дитя робота / I Am Mother (2019) BDRip торрент скачать бесплатно


    Дитя робота / I Am Mother (2019) BDRip торрент скачать бесплатно

    Дата: 26-12-2019, 05:00 | .torrent скачали: 0

    Дитя робота / I Am Mother (2019) BDRipПроизводство: Австралия/The Penguin Empire, Southern Light Films, Rhea Films (II)
    Жанр: Ужасы, фантастика, триллер, драма
    Режиссер: Грант Спьютор

    Актеры
    Роуз Бирн, Хилари Суэнк, Клара Ругор, Люк Хокер, Тейлия Стурзэйкер, Джейкоб Нолан, Хэйзел Сэндери, Саммер Лентон, Мэдди Лентон

    Описание

    После глобального катаклизма человечество вымирает. В подземном бункере автоматически активизируется аварийная программа, и робот-гуманоид Мать выращивает из эмбриона человеческого ребенка. Девушка, воспитанная под бережным присмотром Матери, никогда не видела ни поверхности Земли, ни других людей. Но однажды ее мир переворачивается, когда на пороге убежища появляется женщина с просьбой о помощи…

    Возраст: 16+ (зрителям, достигшим 16 лет)
    Дата мировой премьеры: 25 января 2019
    Дата премьеры в России: 20 июня 2019

    Релиз от: NNMClub
    Продолжительность: 01: 53: 34
    Качество видео: BDRip
    Перевод: Дублированный (iTunes)
    Субтитры: Русские, английские (отдельно)
    Видео: XviD, 720x304, ~2117 Kbps
    Аудио #1: AC3, 6 ch, 384 Kbps - Русский
    Аудио #2: AC3, 6 ch, 384 Kbps - Английский
    Общее
    Полное имя : C: ZI.Am.Mother.2019.BDRip.NNMClubI.Am.Mother.2019.BDRip.NNMClub.avi
    Формат : AVI
    Формат/Информация : Audio Video Interleave
    Профиль формата : OpenDML
    Размер файла : 2, 30 Гбайт
    Продолжительность : 1 ч. 53 м.
    Общий поток : 2901 Кбит/сек
    Программа кодирования : VirtualDubMod 1.5.10.3 (build 2550/release)
    Библиотека кодирования : VirtualDubMod build 2550/release
    Видео
    Идентификатор : 0
    Формат : MPEG-4 Visual
    Профиль формата : Advanced Simple@L5
    Настройки формата : BVOP1/Custom Matrix
    Параметр BVOP формата : 1
    Параметр QPel формата : Нет
    Параметр GMC формата : Без точки перехода
    Параметр матрицы формата : Выборочная
    Идентификатор кодека : XVID
    Идентификатор кодека/Подсказка : XviD
    Продолжительность : 1 ч. 53 м.
    Битрейт : 2117 Кбит/сек
    Ширина : 720 пикселей
    Высота : 304 пикселя
    Соотношение сторон : 2, 35: 1
    Частота кадров : 24, 000 кадра/сек
    Цветовое пространство : YUV
    Субдискретизация насыщенности : 4: 2: 0
    Битовая глубина : 8 бит
    Тип развёртки : Прогрессивная
    Метод сжатия : С потерями
    Бит/(Пиксели*Кадры) : 0.403
    Размер потока : 1, 68 Гбайт (73%)
    Библиотека кодирования : XviD 1.2.1 (UTC 2008-12-04)
    Аудио #1
    Идентификатор : 1
    Формат : AC-3
    Формат/Информация : Audio Coding 3
    Коммерческое название : Dolby Digital
    Идентификатор кодека : 2000
    Продолжительность : 1 ч. 53 м.
    Вид битрейта : Постоянный
    Битрейт : 384 Кбит/сек
    Каналы : 6 каналов
    ChannelLayout : L R C LFE Ls Rs
    Частота : 48, 0 КГц
    Частота кадров : 31, 250 кадров/сек (1536 SPF)
    Метод сжатия : С потерями
    Размер потока : 311 Мбайт (13%)
    Выравнивание : Разделение по промежуткам
    Продолжительность промежутка : 42 мс. (1, 00 видеокадр)
    Время предзагрузки промежутка : 500 мс.
    ServiceKind/String : Complete Main
    Аудио #2
    Идентификатор : 2
    Формат : AC-3
    Формат/Информация : Audio Coding 3
    Коммерческое название : Dolby Digital
    Идентификатор кодека : 2000
    Продолжительность : 1 ч. 53 м.
    Вид битрейта : Постоянный
    Битрейт : 384 Кбит/сек
    Каналы : 6 каналов
    ChannelLayout : L R C LFE Ls Rs
    Частота : 48, 0 КГц
    Частота кадров : 31, 250 кадров/сек (1536 SPF)
    Метод сжатия : С потерями
    Размер потока : 312 Мбайт (13%)
    Выравнивание : Разделение по промежуткам
    Продолжительность промежутка : 42 мс. (1, 00 видеокадр)
    Время предзагрузки промежутка : 500 мс.
    ServiceKind/String : Complete Main

    Скриншоты для ознакомления



    Все одноименные релизы в Клубе Время раздачи: 24/7 (до появления первых 3-5 скачавших)

    Онлайн видео Дитя робота



    Дитя робота/I Am Mother (2019) BDRip
    Рейтинг →
     (голосов: 1, оценка 5/5, голосовать можно 1 раз )

    Другие торренты по теме:

  • Дитя робота / I Am Mother (2019) WEB-DLRip [MVO] [AD]
  • Дитя робота / Я-мать / I Am Mother (2019) WEBRip [H.264 / 720p-LQ] [MVO]
  • Дитя робота / I Am Mother (2019) WEB-DLRip [H.264 / 1080p-LQ] [MVO] [AD]
  • Дитя робота / I Am Mother (2019) WEBRip [H.264 / 720p-LQ] [MVO]
  • Дитя робота / I Am Mother (2019) WEBRip [H.264 / 1080p-LQ] [MVO]
  • Дитя робота / I Am Mother (2019) WEB-DL [H.265 / 1080p-LQ] [MVO] [PR]
  • Дитя робота / I Am Mother (2019) WEBRip [H.264 / 720p-LQ]
  • Дитя робота / I Am Mother (2019) WEB-DLRip


    • Комментарии (0):

      Информация

      Информация

        Посетители, находящиеся в группе Гости, не могут оставлять комментарии в данной новости.

        ↓ Меню




        ↓ Опрос

        Вы добавили сайт в закладки?
        Да
        Нет


        Популярное