.
Авторизация | Регистрация
bitok.xyz
» » Поменяться местами / Mon inconnue (2019) WEB-DLRip торрент скачать бесплатно


    Поменяться местами / Mon inconnue (2019) WEB-DLRip торрент скачать бесплатно

    Дата: 26-12-2019, 05:00 | .torrent скачали: 1

    Поменяться местами / Mon inconnue (2019) WEB-DLRipПроизводство: Франция, Бельгия/Zazi Films, Mars Films, Chapka Films
    Жанр: Драма, мелодрама, комедия
    Режиссер: Юго Желен

    Актеры
    Франсуа Сивиль, Жозефин Жапи, Бенжамен Лаверн, Камилль Лелуш, Амори де Крэенкур, Эдит Скоб, Джульетт Дол, Самир Буатар, Кристиан Бенедетти, Гийом Бушед

    Описание

    Знаменитый и успешный писатель однажды просыпается и понимает, что его жизнь перевернута вверх дном. Теперь он полный лузер и холостяк, который работает простым учителем в школе, а его девушка — успешная пианистка, которая собирается выйти замуж за крутого музыкального продюсера. Чтобы вернуть свою прежнюю жизнь, ему нужно вновь завоевать ее сердце.

    Возраст: 16+ (зрителям, достигшим 16 лет)
    Дата мировой премьеры: 18 января 2019
    Дата российской премьеры: 17 октября 2019
    Продолжительность: 01: 58: 27
    Качество видео: WEB-DLRip
    Перевод: Дублированный (iTunes)
    Субтитры: Отсутствуют
    Видео: Xvid, 688x288, ~783 kbps
    Аудио: MP3, 2 ch, 128 kbps
    Общее
    Полное имя : C: Mon.Inconnue.2019_WEB-DLRip_740.mb.avi
    Формат : AVI
    Формат/Информация : Audio Video Interleave
    Размер файла : 745 Мбайт
    Продолжительность : 1 ч. 53 м.
    Общий поток : 921 Кбит/сек
    Программа кодирования : VirtualDubMod 1.5.10.3 | (build 2550/release)
    Библиотека кодирования : VirtualDubMod build 2550/release
    Видео
    Идентификатор : 0
    Формат : MPEG-4 Visual
    Профиль формата : Advanced Simple@L5
    Параметр BVOP формата : 1
    Параметр QPel формата : Нет
    Параметр GMC формата : Без точки перехода
    Параметр матрицы формата : Выборочная
    Идентификатор кодека : XVID
    Идентификатор кодека/Подсказка : XviD
    Продолжительность : 1 ч. 53 м.
    Битрейт : 783 Кбит/сек
    Ширина : 688 пикселей
    Высота : 288 пикселей
    Соотношение сторон : 2, 40: 1
    Частота кадров : 25, 000 кадров/сек
    Цветовое пространство : YUV
    Субдискретизация насыщенности : 4: 2: 0
    Битовая глубина : 8 бит
    Тип развёртки : Прогрессивная
    Метод сжатия : С потерями
    Бит/(Пиксели*Кадры) : 0.158
    Размер потока : 634 Мбайт (85%)
    Библиотека кодирования : XviD 73
    Аудио
    Идентификатор : 1
    Формат : MPEG Audio
    Версия формата : Version 1
    Профиль формата : Layer 3
    Идентификатор кодека : 55
    Идентификатор кодека/Подсказка : MP3
    Продолжительность : 1 ч. 53 м.
    Вид битрейта : Постоянный
    Битрейт : 128 Кбит/сек
    Каналы : 2 канала
    Частота : 48, 0 КГц
    Метод сжатия : С потерями
    Размер потока : 104 Мбайт (14%)
    Выравнивание : Соединение по промежуткам
    Продолжительность промежутка : 40 мс. (1, 00 видеокадр)
    Время предзагрузки промежутка : 504 мс.
    Библиотека кодирования : LAME3.99r
    Настройки программы : -m s -V 4 -q 2 -lowpass 17 -b 128

    Скриншоты для ознакомления



    Все одноименные релизы в Клубе
    Время раздачи: с 08.00 до 24.00 (до появления первых 3-5 скачавших)

    Онлайн видео Поменяться местами



    Поменяться местами/Mon inconnue (2019) WEB-DLRip
    Рейтинг →
     (голосов: 1, оценка 5/5, голосовать можно 1 раз )

    Другие торренты по теме:

  • Поменяться местами / Trading Places (1983) BDRip [H.264]
  • Поменяться местами / Trading places (1983) BDRip [H.265 / 1080p-LQ]
  • Поменяться местами / Trading Places (1983) Blu-Ray [H.264 / 1080p]
  • Поменяться местами / Mon inconnue (2019) WEB-DLRip [MVO] [AD]
  • Поменяться местами / Mon inconnue / Love at Second Sight (2019) WEB-DL [H.264 / 1080p-LQ]
  • Поменяться местами / Mon inconnue (2019) WEB-DLRip
  • Поменяться местами / Mon inconnue (2019) WEB-DL [H.264 / 1080p-LQ]


    • Комментарии (0):

      Информация

      Информация

        Посетители, находящиеся в группе Гости, не могут оставлять комментарии в данной новости.

        ↓ Меню




        ↓ Опрос

        Вы добавили сайт в закладки?
        Да
        Нет


        Популярное