.
Авторизация | Регистрация
bitok.xyz
» » Zомбилэнд: Контрольный выстрел / Zombieland: Double Tap (2019) HDRip торрент скачать бесплатно


    Zомбилэнд: Контрольный выстрел / Zombieland: Double Tap (2019) HDRip торрент скачать бесплатно

    Дата: 26-12-2019, 05:00 | .torrent скачали: 1

    Zомбилэнд: Контрольный выстрел / Zombieland: Double Tap (2019) HDRipПроизводство: США/Columbia Pictures, Pariah
    Жанр: Ужасы, боевик, комедия
    Режиссер: Рубен Фляйшер

    Актеры
    Джесси Айзенберг, Вуди Харрельсон, Эмма Стоун, Эбигейл Бреслин, Зои Дойч, Розарио Доусон, Эван Джогиа, Билл Мюррей, Дэн Эйкройд, Люк Уилсон

    Описание

    Беспощадная и бесстрашная четверка охотников на зомби продолжает свое путешествие в глубь страны. На этот раз им предстоит сразиться не только с новыми видами живых мертвецов, но и вступить в схватку с другими выжившими, которые настроены совсем не дружелюбно. Кроме того, в собственных рядах охотников намечается серьезный разлад.

    Возраст: 18+ (зрителям, достигшим 18 лет. запрещено для детей)
    Рейтинг MPAA: R (лицам до 17 лет обязательно присутствие взрослого)
    Дата мировой премьеры: 9 октября 2019
    Дата премьеры в России: 24 октября 2019

    Продолжительность: 01: 39: 01
    Качество видео: HDRip
    Перевод: Дублированный (Online Cin.)
    Субтитры: Отсутствуют
    Видео: XviD, 704x296, ~857 Kbps
    Аудио: MP3, 2 ch, 128 Kbps
    Общее
    Полное имя : D: NNMZомбилэндZombieland.2.2019.НDRip.avi
    Формат : AVI
    Формат/Информация : Audio Video Interleave
    Размер файла : 704 Мбайт
    Продолжительность : 1 ч. 39 м.
    Общий поток : 994 Кбит/сек
    Программа кодирования : VirtualDubMod 1.5.10.3 |www.virtualdub-fr.org|| (build 2550/release)
    Библиотека кодирования : VirtualDubMod build 2550/release
    Видео
    Идентификатор : 0
    Формат : MPEG-4 Visual
    Профиль формата : Advanced Simple@L5
    Настройки формата : BVOP1/Custom Matrix
    Параметр BVOP формата : 1
    Параметр QPel формата : Нет
    Параметр GMC формата : Без точки перехода
    Параметр матрицы формата : Выборочная
    Идентификатор кодека : XVID
    Идентификатор кодека/Подсказка : XviD
    Продолжительность : 1 ч. 39 м.
    Битрейт : 857 Кбит/сек
    Ширина : 704 пикселя
    Высота : 296 пикселей
    Соотношение сторон : 2, 40: 1
    Частота кадров : 23, 976 (24000/1001) кадра/сек
    Цветовое пространство : YUV
    Субдискретизация насыщенности : 4: 2: 0
    Битовая глубина : 8 бит
    Тип развёртки : Прогрессивная
    Метод сжатия : С потерями
    Бит/(Пиксели*Кадры) : 0.171
    Размер потока : 607 Мбайт (86%)
    Библиотека кодирования : XviD 1.2.1 (UTC 2008-12-04)
    Аудио
    Идентификатор : 1
    Формат : MPEG Audio
    Версия формата : Version 1
    Профиль формата : Layer 3
    Идентификатор кодека : 55
    Идентификатор кодека/Подсказка : MP3
    Продолжительность : 1 ч. 39 м.
    Вид битрейта : Постоянный
    Битрейт : 128 Кбит/сек
    Каналы : 2 канала
    Частота : 48, 0 КГц
    Частота кадров : 41, 667 кадра/сек (1152 SPF)
    Метод сжатия : С потерями
    Размер потока : 90, 7 Мбайт (13%)
    Выравнивание : Соединение по промежуткам
    Продолжительность промежутка : 42 мс. (1, 00 видеокадр)
    Время предзагрузки промежутка : 504 мс.
    Библиотека кодирования : LAME3.99r
    Настройки программы : -m s -V 4 -q 2 -lowpass 17 -b 128

    Скриншоты для ознакомления



    Все одноименные релизы в Клубе Время раздачи: 24/7 (до появления первых 3-5 скачавших)

    Онлайн видео Zомбилэнд: Контрольный выстрел



    Zомбилэнд: Контрольный выстрел/Zombieland: Double Tap (2019) HDRip
    Рейтинг →
     (голосов: 1, оценка 5/5, голосовать можно 1 раз )

    Другие торренты по теме:

  • Zомбилэнд: Контрольный выстрел / Zombieland: Double Tap (2019) CAMRip [H.264 / 720p-LQ] [MVO] [AD]
  • Zомбилэнд: Контрольный выстрел / Zombieland: Double Tap (2019) WEBRip [H.264 / 1080p-LQ] [ENG / Kor, Ru, Ukr Sub]
  • Zомбилэнд: Контрольный выстрел / Zombieland: Double Tap (2019) WEBRip [ENG / Kor, Ru Sub]
  • Zомбилэнд: Контрольный выстрел / Zombieland: Double Tap (2019) WEBRip [H.264]
  • Zомбилэнд: Контрольный выстрел / Zombieland: Double Tap (2019) HDRip
  • Zомбилэнд: Контрольный выстрел / Zombieland: Double Tap (2019) BDRip [H.264 / 720p] [PR]
  • Zомбилэнд: Контрольный выстрел / Zombieland: Double Tap (2019) BDRip [H.264 / 1080p] [PR]
  • Zомбилэнд: Контрольный выстрел / Zombieland: Double Tap (2019) BDRip [H.264]


    • Комментарии (0):

      Информация

      Информация

        Посетители, находящиеся в группе Гости, не могут оставлять комментарии в данной новости.

        ↓ Меню




        ↓ Опрос

        Вы добавили сайт в закладки?
        Да
        Нет


        Популярное

        Полицейский с Рублёвки. Новогодний беспредел 2 (2019) CamRip [AD]

        (скачиваний: 2276)
        Властелин колец: Трилогия / The Lord of the Rings: Trilogy (2001,2002,2003) BDRip [H.264] [Extended Editions] скачать через торрент бесплатно

        (скачиваний: 672)
        Властелин колец / The Lord of the Rings (2001,2002,2003) BDRip [Extended Edition] [H.264 / 1080p-LQ] [Hi10P]

        (скачиваний: 661)
        Начало / Inception (2010) BDRip [H.265 / 1080p]

        (скачиваний: 642)
        Властелин колец / The Lord of the Rings (2001,2002,2003) BDRip [1080p] [Extended Edition] [Трилогия]

        (скачиваний: 608)
        Квартирник НТВ у Маргулиса. Новогодний выпуск (31.12.2019) WEB-DL [H.264 / 1080p-LQ]

        (скачиваний: 456)
        Каникулы off-line (2018) WEBRip

        (скачиваний: 438)
        Хоббит: Трилогия / The Hobbit: Trilogy (2012, 2013, 2014) BDRip [H.265 / 1080p-LQ] [10-bit] [Расширенная версия]

        (скачиваний: 398)
        Властелин колец / The Lord of the Rings (2001,2002,2003) BDRip [1080p] [Extended Edition] [Трилогия] скачать через торрент бесплатно

        (скачиваний: 277)
        Во все тяжкие / Breaking Bad (2008-2013) BDRip [H.264 / 1080p] (сезон 1-5, серии 1-62 из 62) Кубик в Кубе, LostFilm скачать через торрент бесплатно

        (скачиваний: 256)