.
Авторизация | Регистрация
bitok.xyz
» » Следи за дорогой / Adopt a Highway (2019) BDRemux [H.264 / 1080p] [DVO] торрент скачать бесплатно


    Следи за дорогой / Adopt a Highway (2019) BDRemux [H.264 / 1080p] [DVO] торрент скачать бесплатно

    Дата: 26-12-2019, 05:00 | .torrent скачали: 1

    Следи за дорогой / Adopt a Highway (2019) BDRemux [H.264 / 1080p] [DVO]Производство: США/Divide/Conquer, Blumhouse Productions, Under the Influence
    Жанр: Драма
    Режиссер: Логан Маршалл-Грин

    Актеры
    Итан Хоук, Элэйн Хендрикс, Крис Салливан, Кристофер Хейердал, Энн-Мари Джонсон, Бетти Гэбриел, Мо, Крис Уильямс, Нат Муни, Милона Джексон

    Описание

    Рассел вышел на свободу, отсидев 20 лет в тюрьме. Он пытается приспособиться к жизни, работая в закусочной и проживая в маленькой убогой квартире. Однажды ночью в мусорном баке он находит младенца и решает заботиться о нем.

    Дата мировой премьеры: 10 марта 2019
    Релиз от: mike7025
    Продолжительность: 01: 21: 07
    Качество видео: BDRemux
    Перевод: Двухголосый любительский (Voice Project Studio)
    Субтитры: Русские (FOCS, ненормативная лексика ), английские
    Видео: AVC/H.264, 1920х1080, ~20.7 Mbps
    Аудио 1: AC3, 2 ch, 256 Kbps - Русский (DVO, Voice Project Studio)ненормативная лексика
    Аудио 2: DTS-HD MA, 6 ch, 3419 Kbps - Английский
    General
    Unique ID : 306044709094149124043307148460205265146 (0xE63E112410D76E9278151F31C823D0FA)
    Complete name : G: Adopt.a.Highway.2019.REMUX.mkv
    Format : Matroska
    Format version : Version 4/Version 2
    File size : 13.8 GiB
    Duration : 1 h 21 min
    Overall bit rate mode : Variable
    Overall bit rate : 24.4 Mb/s
    Encoded date : UTC 2019-12-25 06: 36: 27
    Writing application : mkvmerge v20.0.0 (\'I Am The Sun\') 64-bit
    Writing library : libebml v1.3.5 + libmatroska v1.4.8
    Video
    ID : 1
    Format : AVC
    Format/Info : Advanced Video Codec
    Format profile : High@L4.1
    Format settings : CABAC/4 Ref Frames
    Format settings, CABAC : Yes
    Format settings, RefFrames : 4 frames
    Codec ID : V_MPEG4/ISO/AVC
    Duration : 1 h 21 min
    Bit rate mode : Variable
    Bit rate : 20.7 Mb/s
    Maximum bit rate : 36.0 Mb/s
    Width : 1 920 pixels
    Height : 1 080 pixels
    Display aspect ratio : 16: 9
    Frame rate mode : Constant
    Frame rate : 23.976 (24000/1001) FPS
    Color space : YUV
    Chroma subsampling : 4: 2: 0
    Bit depth : 8 bits
    Scan type : Progressive
    Bits/(Pixel*Frame) : 0.416
    Stream size : 11.7 GiB (85%)
    Language : English
    Default : Yes
    Forced : No
    Audio #1
    ID : 2
    Format : AC-3
    Format/Info : Audio Coding 3
    Codec ID : A_AC3
    Duration : 1 h 21 min
    Bit rate mode : Constant
    Bit rate : 256 kb/s
    Channel(s) : 2 channels
    Channel positions : Front: L R
    Sampling rate : 48.0 kHz
    Frame rate : 31.250 FPS (1536 SPF)
    Bit depth : 16 bits
    Compression mode : Lossy
    Stream size : 149 MiB (1%)
    Title : DVO Voice Project Studio
    Language : Russian
    Service kind : Complete Main
    Default : Yes
    Forced : No
    Audio #2
    ID : 3
    Format : DTS
    Format/Info : Digital Theater Systems
    Format profile : MA/Core
    Codec ID : A_DTS
    Duration : 1 h 21 min
    Bit rate mode : Variable/Constant
    Bit rate : 3 419 kb/s/1 509 kb/s
    Channel(s) : 6 channels
    Channel positions : Front: L C R, Side: L R, LFE
    Sampling rate : 48.0 kHz
    Frame rate : 93.750 FPS (512 SPF)
    Bit depth : 24 bits
    Compression mode : Lossless/Lossy
    Stream size : 1.94 GiB (14%)
    Language : English
    Default : No
    Forced : No
    Text #1
    ID : 4
    Format : UTF-8
    Codec ID : S_TEXT/UTF8
    Codec ID/Info : UTF-8 Plain Text
    Duration : 1 h 16 min
    Bit rate : 73 b/s
    Count of elements : 839
    Stream size : 40.8 KiB (0%)
    Title : FOCS
    Language : Russian
    Default : No
    Forced : No
    Text #2
    ID : 5
    Format : UTF-8
    Codec ID : S_TEXT/UTF8
    Codec ID/Info : UTF-8 Plain Text
    Duration : 1 h 20 min
    Bit rate : 45 b/s
    Count of elements : 920
    Stream size : 27.1 KiB (0%)
    Language : English
    Default : No
    Forced : No
    Menu
    00: 00: 00.000 : en: Chapter 01
    00: 13: 14.293 : en: Chapter 02
    00: 23: 04.966 : en: Chapter 03
    00: 34: 05.251 : en: Chapter 04
    00: 45: 03.158 : en: Chapter 05
    00: 52: 46.121 : en: Chapter 06
    01: 01: 14.796 : en: Chapter 07
    01: 16: 09.648 : en: Chapter 08

    Скриншоты для ознакомления




    Все одноименные релизы в Клубе
    Время раздачи: 24/7 (до появления первых 3-5 скачавших)

    Онлайн видео Следи за дорогой



    Следи за дорогой/Adopt a Highway (2019) BDRemux [H.264/1080p] [DVO]
    Рейтинг →
     (голосов: 1, оценка 3/5, голосовать можно 1 раз )

    Другие торренты по теме:

  • Следи за дорогой / Adopt a Highway (2019) WEBRip [H.264 / 1080p-LQ] [MVO] [AD]
  • Следи за дорогой / Adopt a Highway (2019) WEB-DL [H.264 / 1080p-LQ] [MVO]
  • Следи за дорогой / Adopt a Highway (2019) WEB-DL [1080p] (MVO) ATV


    • Комментарии (0):

      Информация

      Информация

        Посетители, находящиеся в группе Гости, не могут оставлять комментарии в данной новости.

        ↓ Меню




        ↓ Опрос

        Вы добавили сайт в закладки?
        Да
        Нет


        Популярное