.
Авторизация | Регистрация
bitok.xyz
» » Кролик Джоджо / Jojo Rabbit (2019) DVDScr [MVO] торрент скачать бесплатно


    Кролик Джоджо / Jojo Rabbit (2019) DVDScr [MVO] торрент скачать бесплатно

    Дата: 26-12-2019, 05:00 | .torrent скачали: 0

    Кролик Джоджо / Jojo Rabbit (2019) DVDScr [MVO]Производство: Чехия, США, Новая Зеландия/Czech Anglo Productions, Defender Films, Piki Films, TSG Entertainment
    Жанр: Драма, комедия, военный
    Режиссер: Тайка Вайтити

    Актеры
    Роман Гриффин Дэвис, Томасин МакКензи, Скарлетт Йоханссон, Тайка Вайтити, Сэм Рокуэлл, Ребел Уилсон, Алфи Аллен, Стивен Мерчант, Арчи Йейтс, Люк Шуфилд

    Описание

    Неловкий и нескладный 10-летний немецкий мальчик, потерявший отца, пытается найти своё место в непривычном мире. Ровесники лишь потешаются над ним, а мама считает, что ребёнок сам придумывает себе проблемы. В надежде получить замену пропавшего отца мальчик придумывает себе воображаемого друга — Адольфа Гитлера, который совсем не похож на знакомого всем фюрера Третьего рейха. Ситуация только осложняется, когда мальчик обнаруживает, что его мать прячет в доме еврейскую девочку.

    Рейтинг MPAA: PG-13 (детям до 13 лет просмотр нежелателен)
    Дата мировой премьеры: 8 сентября 2019
    Релиз от: Алехаndr
    Продолжительность: 01: 48: 00
    Качество видео: DVDScr
    Перевод: Многоголосый профессиональный (HDRezka Studio)
    Субтитры: Русские (вшитые, на надписи)
    Видео: Xvid, 720x384, ~1560 Kbps
    Аудио: AC3, 2 ch, 192 Kbps - Русский (MVO)
    Общее
    Полное имя : D: Jojo.Rabbit.2019.DVDScr.by.Алехаndr.avi
    Формат : AVI
    Формат/Информация : Audio Video Interleave
    Профиль формата : OpenDML
    Размер файла : 1, 33 Гбайт
    Продолжительность : 1 ч. 48 м.
    Общий поток : 1765 Кбит/сек
    Название фильма : Jojo.Rabbit.by.Alexandr
    Программа кодирования : Lavf58.20.100
    Видео
    Идентификатор : 0
    Формат : MPEG-4 Visual
    Профиль формата : Advanced Simple@L5
    Настройки формата : BVOP2
    Параметр BVOP формата : 2
    Параметр QPel формата : Нет
    Параметр GMC формата : Без точки перехода
    Параметр матрицы формата : Default (MPEG)
    Идентификатор кодека : XVID
    Идентификатор кодека/Подсказка : XviD
    Продолжительность : 1 ч. 48 м.
    Битрейт : 1560 Кбит/сек
    Ширина : 720 пикселей
    Высота : 384 пикселя
    Соотношение сторон : 1, 85: 1
    Частота кадров : 23, 976 (24000/1001) кадра/сек
    Цветовое пространство : YUV
    Субдискретизация насыщенности : 4: 2: 0
    Битовая глубина : 8 бит
    Тип развёртки : Прогрессивная
    Метод сжатия : С потерями
    Бит/(Пиксели*Кадры) : 0.235
    Размер потока : 1, 18 Гбайт (88%)
    Библиотека кодирования : XviD 67
    Аудио
    Идентификатор : 1
    Формат : AC-3
    Формат/Информация : Audio Coding 3
    Коммерческое название : Dolby Digital
    Идентификатор кодека : 2000
    Продолжительность : 1 ч. 48 м.
    Вид битрейта : Постоянный
    Битрейт : 192 Кбит/сек
    Каналы : 2 канала
    ChannelLayout : L R
    Частота : 48, 0 КГц
    Частота кадров : 31, 250 кадров/сек (1536 SPF)
    Битовая глубина : 16 бит
    Метод сжатия : С потерями
    Размер потока : 148 Мбайт (11%)
    Выравнивание : Соединение по промежуткам
    Продолжительность промежутка : 32 мс. (0, 77 видеокадр)
    ServiceKind/String : Complete Main

    Скриншоты для ознакомления



    Все одноименные релизы в Клубе
    Время раздачи: 24/7 (круглосуточно) (до появления первых 3-5 скачавших)

    Онлайн видео Кролик Джоджо



    Кролик Джоджо/Jojo Rabbit (2019) DVDScr [MVO]
    Рейтинг →
     (голосов: 1, оценка 5/5, голосовать можно 1 раз )

    Другие торренты по теме:

  • Кролик Джоджо / Jojo Rabbit (2019) DVDScr [MVO] [AD]
  • Кролик Джоджо / Jojo Rabbit (2019) DVDScr [H.264 / 720p-LQ] [DVO]
  • Кролик Джоджо / Jojo Rabbit (2019) DVDScr [H.264] [MP4|1280x720] [DVO] [PR]


    • Комментарии (0):

      Информация

      Информация

        Посетители, находящиеся в группе Гости, не могут оставлять комментарии в данной новости.

        ↓ Меню




        ↓ Опрос

        Вы добавили сайт в закладки?
        Да
        Нет


        Популярное