.
Авторизация | Регистрация
bitok.xyz
» » Дитя робота / I Am Mother (2019) BDRemux [H.264 / 1080p] торрент скачать бесплатно


    Дитя робота / I Am Mother (2019) BDRemux [H.264 / 1080p] торрент скачать бесплатно

    Дата: 26-12-2019, 05:00 | .torrent скачали: 0

    Дитя робота / I Am Mother (2019) BDRemux [H.264 / 1080p]Производство: Австралия/The Penguin Empire, Southern Light Films, Rhea Films (II)
    Жанр: Ужасы, фантастика, триллер, драма
    Режиссер: Грант Спьютор

    Актеры
    Роуз Бирн, Хилари Суэнк, Клара Ругор, Люк Хокер, Тейлия Стурзэйкер, Джейкоб Нолан, Хэйзел Сэндери, Саммер Лентон, Мэдди Лентон

    Описание

    После глобального катаклизма человечество вымирает. В подземном бункере автоматически активизируется аварийная программа, и робот-гуманоид Мать выращивает из эмбриона человеческого ребенка. Девушка, воспитанная под бережным присмотром Матери, никогда не видела ни поверхности Земли, ни других людей. Но однажды ее мир переворачивается, когда на пороге убежища появляется женщина с просьбой о помощи…

    Возраст: 16+ (зрителям, достигшим 16 лет)
    Дата мировой премьеры: 25 января 2019
    Дата премьеры в России: 20 июня 2019

    Продолжительность: 01: 53: 34
    Качество видео: BDRemux (1080p)
    Перевод: Дублированный (iTunes)
    Субтитры: Русские (Forced, Full), английские (Full, SDH)
    Видео: AVC/H.264, 1920x1080, ~32, 2 Mbps
    Аудио #1: AC3, 6 ch, 384 Kbps - Русский
    Аудио #2: DTS-HD MA, 6 ch, 3188 Kbps - Английский
    Общее
    Уникальный идентификатор : 18850369512407602344309479895770478716 (0xE2E72F8EABC3CF599284F9EFE26387C)
    Полное имя : C: ZI.Am.Mother.2019.BDRemux.1080p.mkv
    Формат : Matroska
    Версия формата : Version 4
    Размер файла : 28, 4 Гбайт
    Продолжительность : 1 ч. 53 м.
    Режим общего битрейта : Переменный
    Общий поток : 35, 8 Мбит/сек
    Название фильма : I Am Mother 2019 from селезень
    Дата кодирования : UTC 2019-12-24 23: 23: 05
    Программа кодирования : mkvmerge v40.0.0 (\'Old Town Road + Pony\') 64-bit
    Библиотека кодирования : libebml v1.3.9 + libmatroska v1.5.2
    Видео
    Идентификатор : 1
    Формат : AVC
    Формат/Информация : Advanced Video Codec
    Профиль формата : High@L4.1
    Настройки формата : CABAC/4 Ref Frames
    Параметр CABAC формата : Да
    Параметр RefFrames формата : 4 кадра
    Идентификатор кодека : V_MPEG4/ISO/AVC
    Продолжительность : 1 ч. 53 м.
    Вид битрейта : Переменный
    Битрейт : 32, 2 Мбит/сек
    Максимальный битрейт : 34, 0 Мбит/сек
    Ширина : 1920 пикселей
    Высота : 1080 пикселей
    Соотношение сторон : 16: 9
    Режим частоты кадров : Постоянный
    Частота кадров : 24, 000 кадра/сек
    Цветовое пространство : YUV
    Субдискретизация насыщенности : 4: 2: 0
    Битовая глубина : 8 бит
    Тип развёртки : Прогрессивная
    Бит/(Пиксели*Кадры) : 0.648
    Размер потока : 25, 6 Гбайт (90%)
    Язык : English
    Default : Да
    Forced : Нет
    Аудио #1
    Идентификатор : 2
    Формат : AC-3
    Формат/Информация : Audio Coding 3
    Коммерческое название : Dolby Digital
    Идентификатор кодека : A_AC3
    Продолжительность : 1 ч. 53 м.
    Вид битрейта : Постоянный
    Битрейт : 384 Кбит/сек
    Каналы : 6 каналов
    ChannelLayout : L R C LFE Ls Rs
    Частота : 48, 0 КГц
    Частота кадров : 31, 250 кадров/сек (1536 SPF)
    Метод сжатия : С потерями
    Размер потока : 311 Мбайт (1%)
    Заголовок : iTunes
    Язык : Russian
    ServiceKind/String : Complete Main
    Default : Да
    Forced : Да
    Аудио #2
    Идентификатор : 3
    Формат : DTS XLL
    Формат/Информация : Digital Theater Systems
    Коммерческое название : DTS-HD Master Audio
    Идентификатор кодека : A_DTS
    Продолжительность : 1 ч. 53 м.
    Вид битрейта : Переменный
    Битрейт : 3188 Кбит/сек
    Каналы : 6 каналов
    ChannelLayout : C L R Ls Rs LFE
    Частота : 48, 0 КГц
    Частота кадров : 93, 750 кадра/сек (512 SPF)
    Битовая глубина : 24 бит
    Метод сжатия : Без потерь
    Размер потока : 2, 53 Гбайт (9%)
    Заголовок : Original
    Язык : English
    Default : Нет
    Forced : Нет
    Текст #1
    Идентификатор : 4
    Формат : UTF-8
    Идентификатор кодека : S_TEXT/UTF8
    Идентификатор кодека/Информация : UTF-8 Plain Text
    Продолжительность : 58 м. 37 с.
    Битрейт : 1 бит/сек
    ElementCount : 14
    Размер потока : 737 байт (0%)
    Заголовок : Forced
    Язык : Russian
    Default : Да
    Forced : Да
    Текст #2
    Идентификатор : 5
    Формат : UTF-8
    Идентификатор кодека : S_TEXT/UTF8
    Идентификатор кодека/Информация : UTF-8 Plain Text
    Продолжительность : 1 ч. 45 м.
    Битрейт : 51 бит/сек
    ElementCount : 905
    Размер потока : 39, 5 Кбайт (0%)
    Заголовок : Full
    Язык : Russian
    Default : Нет
    Forced : Нет
    Текст #3
    Идентификатор : 6
    Формат : UTF-8
    Идентификатор кодека : S_TEXT/UTF8
    Идентификатор кодека/Информация : UTF-8 Plain Text
    Продолжительность : 1 ч. 42 м.
    Битрейт : 36 бит/сек
    ElementCount : 912
    Размер потока : 27, 7 Кбайт (0%)
    Заголовок : Full
    Язык : English
    Default : Нет
    Forced : Нет
    Текст #4
    Идентификатор : 7
    Формат : UTF-8
    Идентификатор кодека : S_TEXT/UTF8
    Идентификатор кодека/Информация : UTF-8 Plain Text
    Продолжительность : 1 ч. 45 м.
    Битрейт : 42 бит/сек
    ElementCount : 1156
    Размер потока : 32, 7 Кбайт (0%)
    Заголовок : SDH
    Язык : English
    Default : Нет
    Forced : Нет
    Меню
    00: 00: 00.000 : en: Глава 01
    00: 10: 07.000 : en: Глава 02
    00: 19: 38.458 : en: Глава 03
    00: 29: 23.792 : en: Глава 04
    00: 39: 18.208 : en: Глава 05
    00: 49: 30.375 : en: Глава 06
    00: 59: 47.917 : en: Глава 07
    01: 10: 20.375 : en: Глава 08
    01: 20: 14.750 : en: Глава 09
    01: 29: 33.917 : en: Глава 10
    01: 42: 50.083 : en: Глава 11

    Скриншоты для ознакомления



    Все одноименные релизы в Клубе Время раздачи: 24/7 (до появления первых 3-5 скачавших)

    Онлайн видео Дитя робота



    Дитя робота/I Am Mother (2019) BDRemux [H.264/1080p]
    Рейтинг →
     (голосов: 1, оценка 5/5, голосовать можно 1 раз )

    Другие торренты по теме:

  • Дитя робота / I Am Mother (2019) WEB-DLRip [MVO] [AD]
  • Дитя робота / Я-мать / I Am Mother (2019) WEBRip [H.264 / 720p-LQ] [MVO]
  • Дитя робота / I Am Mother (2019) WEB-DLRip [H.264 / 1080p-LQ] [MVO] [AD]
  • Дитя робота / I Am Mother (2019) WEBRip [H.264 / 720p-LQ] [MVO]
  • Дитя робота / I Am Mother (2019) WEBRip [H.264 / 1080p-LQ] [MVO]
  • Дитя робота / I Am Mother (2019) WEB-DL [H.265 / 1080p-LQ] [MVO] [PR]
  • Дитя робота / I Am Mother (2019) WEBRip [H.264 / 720p-LQ]
  • Дитя робота / I Am Mother (2019) WEB-DLRip


    • Комментарии (0):

      Информация

      Информация

        Посетители, находящиеся в группе Гости, не могут оставлять комментарии в данной новости.

        ↓ Меню




        ↓ Опрос

        Вы добавили сайт в закладки?
        Да
        Нет


        Популярное